<?xml version="1.0" standalone="no"?>
<!DOCTYPE svg PUBLIC "-//W3C//DTD SVG 1.1//EN" "http://www.w3.org/Graphics/SVG/1.1/DTD/svg11.dtd" >
<svg xmlns="http://www.w3.org/2000/svg">
<metadata>
<json>
<![CDATA[
{
	"fontFamily": "Phosphor-Duotone",
	"majorVersion": 2,
	"minorVersion": 1,
	"fontURL": "https://phosphoricons.com",
	"description": "A flexible icon family for everyone\nFont generated by IcoMoon.",
	"copyright": "Phosphor Icons",
	"designer": "Tobias Fried & Helena Zhang",
	"designerURL": "https://phosphoricons.com",
	"license": "MIT",
	"licenseURL": "https://raw.githubusercontent.com/phosphor-icons/homepage/master/LICENSE",
	"version": "Version 2.1",
	"fontId": "Phosphor-Duotone",
	"psName": "Phosphor-Duotone",
	"subFamily": "Regular",
	"fullName": "Phosphor-Duotone"
}
]]>
</json>
</metadata>
<defs>
<font id="Phosphor-Duotone" horiz-adv-x="1024">
<font-face units-per-em="1024" ascent="960" descent="-64" />
<missing-glyph horiz-adv-x="1024" />
<glyph unicode="&#x20;" horiz-adv-x="512" d="" />
<glyph unicode="&#xe000;" d="M384 800l134.080-352h-294.080zM800 448h-281.92l121.92-320z" />
<glyph unicode="&#xe001;" d="M960 448c0-17.673-14.327-32-32-32v0h-108.24l-151.12-302.32c-5.373-10.567-16.164-17.68-28.617-17.68-0.008 0-0.016 0-0.024 0h-1.599c-12.933 0.659-23.785 8.902-28.245 20.342l-0.075 0.218-228.68 600.4-128.28-282.2c-5.159-11.154-16.251-18.755-29.119-18.76h-128.001c-17.673 0-32 14.327-32 32s14.327 32 32 32v0h107.4l151.48 333.24c5.159 11.162 16.259 18.768 29.136 18.768 13.578 0 25.181-8.457 29.829-20.39l0.075-0.218 230.040-604 127.4 254.84c5.355 10.606 16.162 17.753 28.639 17.76h128.001c17.673 0 32-14.327 32-32v0z" />
<glyph unicode="&#xe002;" d="M608 352v-128l64-64v-128l-160 64-160-64v128l64 64v128l-320-64v128l320 160v192c0 53.019 42.981 96 96 96s96-42.981 96-96v0-192l320-160v-128z" />
<glyph unicode="&#xe003;" d="M942.32 444.64l-302.32 151.12v172.24c0 70.692-57.308 128-128 128s-128-57.308-128-128v0-172.24l-302.32-151.12c-10.567-5.373-17.68-16.164-17.68-28.617 0-0.008 0-0.016 0-0.024v0.001-128c0.010-17.665 14.333-31.982 32-31.982 2.222 0 4.392 0.227 6.487 0.658l-0.207-0.036 281.72 56.32v-75.72l-54.64-54.6c-5.783-5.79-9.36-13.785-9.36-22.615 0-0.009 0-0.018 0-0.027v0.001-128c0-0.016 0-0.036 0-0.055 0-17.673 14.327-32 32-32 4.325 0 8.449 0.858 12.213 2.413l-0.213-0.078 148 59.24 148-59.24c3.551-1.477 7.675-2.335 12-2.335 17.673 0 32 14.327 32 32 0 0.019 0 0.039 0 0.058v-0.003 128c0 0.007 0 0.016 0 0.025 0 8.83-3.577 16.825-9.36 22.615v0l-54.64 54.6v75.72l281.72-56.32c1.888-0.396 4.058-0.622 6.28-0.622 17.667 0 31.99 14.317 32 31.981v128.001c0 0.007 0 0.015 0 0.023 0 12.453-7.113 23.245-17.498 28.533l-0.182 0.084zM896 327.040l-281.72 56.32c-1.888 0.396-4.058 0.622-6.28 0.622-17.667 0-31.99-14.317-32-31.981v-128.001c0-0.007 0-0.016 0-0.025 0-8.83 3.577-16.825 9.36-22.615v0l54.64-54.6v-67.48l-116 46.44c-3.517 1.447-7.601 2.287-11.88 2.287s-8.363-0.84-12.094-2.364l0.214 0.077-116.24-46.44v67.48l54.64 54.6c5.783 5.79 9.36 13.785 9.36 22.615 0 0.009 0 0.018 0 0.027v-0.001 128c-0.010 17.665-14.333 31.982-32 31.982-2.222 0-4.392-0.227-6.487-0.658l0.207 0.036-281.72-56.32v69.2l302.32 151.12c10.567 5.373 17.68 16.164 17.68 28.617 0 0.008 0 0.016 0 0.024v-0.001 192c0 35.346 28.654 64 64 64s64-28.654 64-64v0-192c0-0.007 0-0.015 0-0.023 0-12.453 7.113-23.245 17.498-28.533l0.182-0.084 302.32-151.12z" />
<glyph unicode="&#xe004;" d="M896 704v-448c0-35.346-28.654-64-64-64v0h-210.28l-109.72 128-109.72-128h-210.28c-35.346 0-64 28.654-64 64v0 448c0 35.346 28.654 64 64 64v0h640c35.346 0 64-28.654 64-64v0z" />
<glyph unicode="&#xe005;" d="M536.32 340.84c-5.904 6.861-14.598 11.179-24.3 11.179s-18.396-4.318-24.265-11.137l-0.035-0.042-192-224c-4.796-5.563-7.716-12.86-7.716-20.84 0-17.672 14.325-31.998 31.996-32h384c17.672 0.002 31.996 14.328 31.996 32 0 7.98-2.921 15.277-7.751 20.882l0.035-0.042zM389.56 128l122.44 142.84 122.44-142.84zM928 704v-448c0-53.019-42.981-96-96-96v0h-32c-17.673 0-32 14.327-32 32s14.327 32 32 32v0h32c17.673 0 32 14.327 32 32v0 448c0 17.673-14.327 32-32 32v0h-640c-17.673 0-32-14.327-32-32v0-448c0-17.673 14.327-32 32-32v0h32c17.673 0 32-14.327 32-32s-14.327-32-32-32v0h-32c-53.019 0-96 42.981-96 96v0 448c0 53.019 42.981 96 96 96v0h640c53.019 0 96-42.981 96-96v0z" />
<glyph unicode="&#xe006;" d="M864 416c0-194.404-157.596-352-352-352s-352 157.596-352 352c0 194.404 157.596 352 352 352v0c194.404 0 352-157.596 352-352v0z" />
<glyph unicode="&#xe007;" d="M512 800c-212.077 0-384-171.923-384-384s171.923-384 384-384c212.077 0 384 171.923 384 384v0c-0.25 211.976-172.023 383.75-383.976 384h-0.024zM512 96c-176.731 0-320 143.269-320 320s143.269 320 320 320c176.731 0 320-143.269 320-320v0c-0.205-176.648-143.351-319.795-319.98-320h-0.020zM246.64 809.36l-128-128c-5.794-5.794-13.799-9.378-22.64-9.378-17.683 0-32.018 14.335-32.018 32.018 0 8.841 3.584 16.846 9.378 22.64l128 128c5.794 5.794 13.799 9.378 22.64 9.378 17.683 0 32.018-14.335 32.018-32.018 0-8.841-3.584-16.846-9.378-22.64v0zM950.64 681.36c-5.792-5.798-13.797-9.385-22.64-9.385s-16.848 3.587-22.64 9.385v0l-128 128c-5.794 5.794-9.378 13.799-9.378 22.64 0 17.683 14.335 32.018 32.018 32.018 8.841 0 16.846-3.584 22.64-9.378v0l128-128c5.798-5.792 9.385-13.797 9.385-22.64s-3.587-16.848-9.385-22.64v0zM736 448c17.673 0 32-14.327 32-32s-14.327-32-32-32v0h-224c-17.673 0-32 14.327-32 32v0 224c0 17.673 14.327 32 32 32s32-14.327 32-32v0-192z" />
<glyph unicode="&#xe008;" d="M928 320v-96c0-17.673-14.327-32-32-32v0h-768c-17.673 0-32 14.327-32 32v0 91.48c0 229.92 184.6 419.72 414.52 420.52 0.44 0.002 0.96 0.003 1.48 0.003 229.75 0 416-186.25 416-416 0-0.001 0-0.002 0-0.003v0z" />
<glyph unicode="&#xe009;" d="M704 368c0-26.51-21.49-48-48-48s-48 21.49-48 48c0 26.51 21.49 48 48 48v0c26.51 0 48-21.49 48-48v0zM368 416c-26.51 0-48-21.49-48-48s21.49-48 48-48c26.51 0 48 21.49 48 48v0c0 26.51-21.49 48-48 48v0zM960 320v-96c0-35.346-28.654-64-64-64v0h-768c-35.346 0-64 28.654-64 64v0 91.48c0 0.125 0 0.272 0 0.419 0 129.538 54.309 246.392 141.401 329.033l0.2 0.188-100.24 100.24c-5.794 5.794-9.378 13.799-9.378 22.64 0 17.683 14.335 32.018 32.018 32.018 8.841 0 16.846-3.584 22.64-9.378l104.64-104.64c71.635 51.289 161.034 82.011 257.61 82.011 96.137 0 185.162-30.444 257.963-82.218l-1.372 0.927 104 104c5.794 5.794 13.799 9.378 22.64 9.378 17.683 0 32.018-14.335 32.018-32.018 0-8.841-3.584-16.846-9.378-22.64v0l-99.48-99.44c3-2.84 6-5.72 8.96-8.68 81.379-80.668 131.762-192.49 131.762-316.080 0-0.436-0.001-0.872-0.002-1.307v0.067zM896 320c0 212.077-171.923 384-384 384v0h-1.36c-211-0.72-382.64-175-382.64-388.52v-91.48h768z" />
<glyph unicode="&#xe00a;" d="M783.52 719.52c-69.491 69.496-165.495 112.48-271.538 112.48-212.077 0-384-171.923-384-384s171.923-384 384-384c106.043 0 202.047 42.984 271.538 112.48v0c69.485 69.489 112.462 165.486 112.462 271.52s-42.977 202.031-112.462 271.52v0zM562.16 307.52v0l-146.72 26.76-50.16 140.52 96.56 113.64 146.72-26.76 50.16-140.48z" />
<glyph unicode="&#xe00b;" d="M806.16 742.16c-75.282 75.282-179.283 121.845-294.16 121.845-229.753 0-416.005-186.252-416.005-416.005 0-114.877 46.563-218.878 121.845-294.16v0c75.282-75.282 179.283-121.845 294.16-121.845 229.753 0 416.005 186.252 416.005 416.005 0 114.877-46.563 218.878-121.845 294.16v0zM760.92 696.88c16.016-16.083 30.499-33.717 43.197-52.649l0.803-1.271-134.72-158.96-111.68 312.88c79.747-10.691 149.548-46.891 202.386-99.986l0.014-0.014zM622.36 428l-72.64-85.48-110.36 20-37.72 105.48 72.64 85.48 110.36-20zM263.080 696.88c58.444 58.753 137.627 96.825 225.641 102.31l0.999 0.050 70.040-196-326.56 59.48c9.666 12.544 19.451 23.686 29.892 34.172l-0.012-0.012zM186.6 313.84c-16.683 39.626-26.377 85.688-26.377 134.015 0 56.987 13.479 110.825 37.423 158.501l-0.926-2.036 204.84-37.4zM263.080 199.12c-16.016 16.083-30.499 33.717-43.197 52.649l-0.803 1.271 134.72 158.96 111.68-312.72c-79.73 10.644-149.531 46.79-202.39 99.83l-0.010 0.010zM760.92 199.12c-58.444-58.753-137.627-96.825-225.641-102.31l-0.999-0.050-70.040 196 326.56-59.64c-9.661-12.474-19.445-23.563-29.881-34.001l0.001 0.001zM622.44 329.080l214.96 253.080c16.683-39.626 26.377-85.688 26.377-134.015 0-56.987-13.479-110.825-37.423-158.501l0.926 2.036z" />
<glyph unicode="&#xe00c;" d="M864 576v-384c0-17.673-14.327-32-32-32v0h-640c-17.673 0-32 14.327-32 32v0 384z" />
<glyph unicode="&#xe00d;" d="M896 768h-768c-35.346 0-64-28.654-64-64v0-96c0-35.346 28.654-64 64-64v0-352c0-35.346 28.654-64 64-64v0h640c35.346 0 64 28.654 64 64v0 352c35.346 0 64 28.654 64 64v0 96c0 35.346-28.654 64-64 64v0zM832 192h-640v352h640zM896 608h-768v96h768v-96zM384 416c0 17.673 14.327 32 32 32v0h192c17.673 0 32-14.327 32-32s-14.327-32-32-32v0h-192c-17.673 0-32 14.327-32 32v0z" />
<glyph unicode="&#xe00e;" d="M864 672v-544c0-17.673-14.327-32-32-32v0h-640c-17.673 0-32 14.327-32 32v0 544z" />
<glyph unicode="&#xe00f;" d="M892.64 686.32l-64 128c-5.373 10.567-16.164 17.68-28.617 17.68-0.008 0-0.016 0-0.024 0h-575.999c-0.007 0-0.015 0-0.023 0-12.453 0-23.245-7.113-28.533-17.498l-0.084-0.182-64-128c-2.115-4.175-3.355-9.102-3.36-14.318v-544.002c0-35.346 28.654-64 64-64v0h640c35.346 0 64 28.654 64 64v0 544c-0.005 5.218-1.245 10.145-3.445 14.505l0.085-0.185zM243.76 768h536.48l32-64h-600.48zM832 128h-640v512h640v-512zM662.64 374.64c5.798-5.792 9.385-13.797 9.385-22.64s-3.587-16.848-9.385-22.64v0l-128-128c-5.792-5.798-13.797-9.385-22.64-9.385s-16.848 3.587-22.64 9.385v0l-128 128c-5.794 5.794-9.378 13.799-9.378 22.64 0 17.683 14.335 32.018 32.018 32.018 8.841 0 16.846-3.584 22.64-9.378l73.36-73.4v242.76c0 17.673 14.327 32 32 32s32-14.327 32-32v0-242.76l73.36 73.4c5.792 5.798 13.797 9.385 22.64 9.385s16.848-3.587 22.64-9.385v0z" />
<glyph unicode="&#xe010;" d="M864 768v-448h-146.76c-0.007 0-0.016 0-0.025 0-8.83 0-16.825-3.577-22.615-9.36v0l-77.24-77.28c-5.79-5.783-13.785-9.36-22.615-9.36-0.009 0-0.018 0-0.027 0h-165.479c-0.007 0-0.016 0-0.025 0-8.83 0-16.825 3.577-22.615 9.36v0l-77.24 77.28c-5.79 5.783-13.785 9.36-22.615 9.36-0.009 0-0.018 0-0.027 0h-146.719v448c0 17.673 14.327 32 32 32v0h640c17.673 0 32-14.327 32-32v0z" />
<glyph unicode="&#xe011;" d="M832 832h-640c-35.346 0-64-28.654-64-64v0-640c0-35.346 28.654-64 64-64v0h640c35.346 0 64 28.654 64 64v0 640c0 35.346-28.654 64-64 64v0zM832 768v-416h-114.8c-0.048 0-0.106 0-0.163 0-17.607 0-33.539-7.173-45.033-18.756l-77.244-77.244h-165.52l-77.24 77.28c-11.512 11.564-27.444 18.72-45.047 18.72-0.068 0-0.135 0-0.203 0h-114.749v416zM832 128h-640v160h114.76l77.24-77.28c11.512-11.564 27.444-18.72 45.047-18.72 0.068 0 0.135 0 0.203 0h165.509c0.060 0 0.131 0 0.203 0 17.607 0 33.539 7.173 45.033 18.756l77.244 77.244h114.76v-160zM361.36 457.36c-5.794 5.794-9.378 13.799-9.378 22.64 0 17.683 14.335 32.018 32.018 32.018 8.841 0 16.846-3.584 22.64-9.378l73.36-73.4v242.76c0 17.673 14.327 32 32 32s32-14.327 32-32v0-242.76l73.36 73.4c5.794 5.794 13.799 9.378 22.64 9.378 17.683 0 32.018-14.335 32.018-32.018 0-8.841-3.584-16.846-9.378-22.64l-128-128c-5.792-5.798-13.797-9.385-22.64-9.385s-16.848 3.587-22.64 9.385v0z" />
<glyph unicode="&#xe012;" d="M960 448c0-70.692-57.308-128-128-128v0-160c0-17.673-14.327-32-32-32v0h-576c-17.673 0-32 14.327-32 32v0 160c-70.692 0-128 57.308-128 128s57.308 128 128 128v0 96c0 70.692 57.308 128 128 128v0h384c70.692 0 128-57.308 128-128v0-96c70.692 0 128-57.308 128-128v0z" />
<glyph unicode="&#xe013;" d="M864 604.8v67.2c0 88.366-71.634 160-160 160v0h-384c-88.366 0-160-71.634-160-160v0-67.2c-73.633-15.344-128.16-79.704-128.16-156.8s54.527-141.456 127.12-156.618l1.040-0.182v-131.2c0-35.346 28.654-64 64-64v0h576c35.346 0 64 28.654 64 64v0 131.2c73.633 15.344 128.16 79.704 128.16 156.8s-54.527 141.456-127.12 156.618l-1.040 0.182zM320 768h384c53.019 0 96-42.981 96-96v0-67.2c-73.508-15.509-127.903-79.788-128-156.789v-0.011h-320c-0.097 77.012-54.492 141.291-126.953 156.615l-1.047 0.185v67.2c0 53.019 42.981 96 96 96v0zM833.56 352h-1.56c-17.673 0-32-14.327-32-32v0-160h-576v160c0 17.673-14.327 32-32 32v0h-1.56c-52.344 0.878-94.44 43.517-94.44 95.987 0 53.019 42.981 96 96 96 53.015 0 95.993-42.973 96-95.987v-160.001c0-17.673 14.327-32 32-32s32 14.327 32 32v0 96h320v-96c0-17.673 14.327-32 32-32s32 14.327 32 32v0 160c0.007 53.014 42.985 95.987 96 95.987 53.019 0 96-42.981 96-96 0-52.471-42.096-95.11-94.358-95.986l-0.082-0.001z" />
<glyph unicode="&#xe014;" d="M352 352h-256v256z" />
<glyph unicode="&#xe015;" d="M806.16 518.16c-75.279 75.268-179.27 121.822-294.134 121.822-111.585 0-212.909-43.933-287.618-115.447l0.152 0.145-105.92 105.96c-5.792 5.798-13.797 9.385-22.64 9.385-17.673 0-32-14.327-32-32 0-0.009 0-0.018 0-0.027v0.001-256c0-17.673 14.327-32 32-32v0h256c0.007 0 0.016 0 0.025 0 17.673 0 32 14.327 32 32 0 8.843-3.587 16.848-9.385 22.64l-104.76 104.72c62.954 59.749 148.246 96.497 242.12 96.497 194.354 0 351.918-157.514 352-351.849v-0.008c0-17.673 14.327-32 32-32s32 14.327 32 32v0c0.001 0.332 0.002 0.725 0.002 1.118 0 114.524-46.578 218.169-121.824 293.024l-0.018 0.018zM128 384v146.76l146.76-146.76z" />
<glyph unicode="&#xe016;" d="M928 608v-256h-256z" />
<glyph unicode="&#xe017;" d="M940.24 637.56c-3.623 1.545-7.838 2.443-12.262 2.443-8.832 0-16.828-3.578-22.618-9.363v0l-105.92-105.96c-74.554 71.353-175.867 115.277-287.44 115.277-229.735 0-415.976-186.225-416-415.955v-0.002c0-17.673 14.327-32 32-32s32 14.327 32 32v0c0.082 194.343 157.646 351.857 352 351.857 93.874 0 179.166-36.747 242.274-96.642l-0.154 0.145-104.76-104.72c-5.798-5.792-9.385-13.797-9.385-22.64 0-17.673 14.327-32 32-32 0.009 0 0.018 0 0.027 0h255.999c17.673 0 32 14.327 32 32v0 256c-0.003 13.254-8.064 24.626-19.55 29.481l-0.21 0.079zM896 384h-146.76l146.76 146.76z" />
<glyph unicode="&#xe018;" d="M320 544v-384l-192 192z" />
<glyph unicode="&#xe019;" d="M896 768c-17.673 0-32-14.327-32-32v0c-0.228-194.313-157.687-351.772-351.978-352h-160.022v160c0 0.007 0 0.016 0 0.025 0 17.673-14.327 32-32 32-8.843 0-16.848-3.587-22.64-9.385v0l-192-192c-5.798-5.792-9.385-13.797-9.385-22.64s3.587-16.848 9.385-22.64v0l192-192c5.792-5.798 13.797-9.385 22.64-9.385 17.673 0 32 14.327 32 32 0 0.009 0 0.018 0 0.027v-0.001 160h160c229.65 0.25 415.75 186.35 416 415.976v0.024c0 17.673-14.327 32-32 32v0zM288 237.24l-114.76 114.76 114.76 114.76z" />
<glyph unicode="&#xe01a;" d="M896 352l-192-192v384z" />
<glyph unicode="&#xe01b;" d="M918.64 374.64l-192 192c-5.792 5.798-13.797 9.385-22.64 9.385-17.673 0-32-14.327-32-32 0-0.009 0-0.018 0-0.027v0.001-160h-160c-194.313 0.228-351.772 157.687-352 351.978v0.022c0 17.673-14.327 32-32 32s-32-14.327-32-32v0c0.25-229.65 186.35-415.75 415.976-416h160.024v-160c0-0.007 0-0.016 0-0.025 0-17.673 14.327-32 32-32 8.843 0 16.848 3.587 22.64 9.385v0l192 192c5.798 5.792 9.385 13.797 9.385 22.64s-3.587 16.848-9.385 22.64v0zM736 237.24v229.52l114.76-114.76z" />
<glyph unicode="&#xe01c;" d="M608 256l-192-192-192 192z" />
<glyph unicode="&#xe01d;" d="M800 864c-229.65-0.25-415.75-186.35-416-415.976v-160.024h-160c-0.007 0-0.016 0-0.025 0-17.673 0-32-14.327-32-32 0-8.843 3.587-16.848 9.385-22.64v0l192-192c5.792-5.798 13.797-9.385 22.64-9.385s16.848 3.587 22.64 9.385v0l192 192c5.798 5.792 9.385 13.797 9.385 22.64 0 17.673-14.327 32-32 32-0.009 0-0.018 0-0.027 0h-159.999v160c0.228 194.313 157.687 351.772 351.978 352h0.022c17.673 0 32 14.327 32 32s-14.327 32-32 32v0zM416 109.24l-114.76 114.76h229.52z" />
<glyph unicode="&#xe01e;" d="M608 640h-384l192 192z" />
<glyph unicode="&#xe01f;" d="M800 96c-194.313 0.228-351.772 157.687-352 351.978v160.022h160c0.007 0 0.016 0 0.025 0 17.673 0 32 14.327 32 32 0 8.843-3.587 16.848-9.385 22.64v0l-192 192c-5.792 5.798-13.797 9.385-22.64 9.385s-16.848-3.587-22.64-9.385v0l-192-192c-5.798-5.792-9.385-13.797-9.385-22.64 0-17.673 14.327-32 32-32 0.009 0 0.018 0 0.027 0h159.999v-160c0.25-229.65 186.35-415.75 415.976-416h0.024c17.673 0 32 14.327 32 32s-14.327 32-32 32v0zM416 786.76l114.76-114.76h-229.52z" />
<glyph unicode="&#xe020;" d="M800 256l-192-192-192 192z" />
<glyph unicode="&#xe021;" d="M829.56 268.24c-4.934 11.696-16.306 19.757-29.56 19.76h-160v160c-0.25 229.65-186.35 415.75-415.976 416h-0.024c-17.673 0-32-14.327-32-32s14.327-32 32-32v0c194.313-0.228 351.772-157.687 352-351.978v-160.022h-160c-0.007 0-0.016 0-0.025 0-17.673 0-32-14.327-32-32 0-8.843 3.587-16.848 9.385-22.64v0l192-192c5.792-5.798 13.797-9.385 22.64-9.385s16.848 3.587 22.64 9.385v0l192 192c5.785 5.79 9.363 13.786 9.363 22.618 0 4.425-0.898 8.639-2.522 12.472l0.079-0.21zM608 109.24l-114.76 114.76h229.52z" />
<glyph unicode="&#xe022;" d="M800 640h-384l192 192z" />
<glyph unicode="&#xe023;" d="M822.64 662.64l-192 192c-5.792 5.798-13.797 9.385-22.64 9.385s-16.848-3.587-22.64-9.385v0l-192-192c-5.798-5.792-9.385-13.797-9.385-22.64 0-17.673 14.327-32 32-32 0.009 0 0.018 0 0.027 0h159.999v-160c-0.228-194.313-157.687-351.772-351.978-352h-0.022c-17.673 0-32-14.327-32-32s14.327-32 32-32v0c229.65 0.25 415.75 186.35 416 415.976v160.024h160c0.007 0 0.016 0 0.025 0 17.673 0 32 14.327 32 32 0 8.843-3.587 16.848-9.385 22.64v0zM493.24 672l114.76 114.76 114.76-114.76z" />
<glyph unicode="&#xe024;" d="M320 736v-384l-192 192z" />
<glyph unicode="&#xe025;" d="M512 576h-160v160c0 0.007 0 0.016 0 0.025 0 17.673-14.327 32-32 32-8.843 0-16.848-3.587-22.64-9.385v0l-192-192c-5.798-5.792-9.385-13.797-9.385-22.64s3.587-16.848 9.385-22.64v0l192-192c5.792-5.798 13.797-9.385 22.64-9.385 17.673 0 32 14.327 32 32 0 0.009 0 0.018 0 0.027v-0.001 160h160c194.313-0.228 351.772-157.687 352-351.978v-0.022c0-17.673 14.327-32 32-32s32 14.327 32 32v0c-0.25 229.65-186.35 415.75-415.976 416h-0.024zM288 429.24l-114.76 114.76 114.76 114.76z" />
<glyph unicode="&#xe026;" d="M896 544l-192-192v384z" />
<glyph unicode="&#xe027;" d="M918.64 566.64l-192 192c-5.792 5.798-13.797 9.385-22.64 9.385-17.673 0-32-14.327-32-32 0-0.009 0-0.018 0-0.027v0.001-160h-160c-229.65-0.25-415.75-186.35-416-415.976v-0.024c0-17.673 14.327-32 32-32s32 14.327 32 32v0c0.228 194.313 157.687 351.772 351.978 352h160.022v-160c0-0.007 0-0.016 0-0.025 0-17.673 14.327-32 32-32 8.843 0 16.848 3.587 22.64 9.385v0l192 192c5.798 5.792 9.385 13.797 9.385 22.64s-3.587 16.848-9.385 22.64v0zM736 429.24v229.52l114.76-114.76z" />
<glyph unicode="&#xe028;" d="M896 448c0-212.077-171.923-384-384-384s-384 171.923-384 384c0 212.077 171.923 384 384 384v0c212.077 0 384-171.923 384-384v0z" />
<glyph unicode="&#xe029;" d="M512 864c-229.75 0-416-186.25-416-416s186.25-416 416-416c229.75 0 416 186.25 416 416v0c-0.25 229.65-186.35 415.75-415.976 416h-0.024zM512 96c-194.404 0-352 157.596-352 352s157.596 352 352 352c194.404 0 352-157.596 352-352v0c-0.228-194.313-157.687-351.772-351.978-352h-0.022zM662.64 438.64c5.798-5.792 9.385-13.797 9.385-22.64s-3.587-16.848-9.385-22.64v0l-128-128c-5.792-5.798-13.797-9.385-22.64-9.385s-16.848 3.587-22.64 9.385v0l-128 128c-5.794 5.794-9.378 13.799-9.378 22.64 0 17.683 14.335 32.018 32.018 32.018 8.841 0 16.846-3.584 22.64-9.378l73.36-73.4v242.76c0 17.673 14.327 32 32 32s32-14.327 32-32v0-242.76l73.36 73.4c5.792 5.798 13.797 9.385 22.64 9.385s16.848-3.587 22.64-9.385v0z" />
<glyph unicode="&#xe02a;" d="M896 448c0-212.077-171.923-384-384-384s-384 171.923-384 384c0 212.077 171.923 384 384 384v0c212.077 0 384-171.923 384-384v0z" />
<glyph unicode="&#xe02b;" d="M512 864c-229.75 0-416-186.25-416-416s186.25-416 416-416c229.75 0 416 186.25 416 416v0c-0.25 229.65-186.35 415.75-415.976 416h-0.024zM512 96c-194.404 0-352 157.596-352 352s157.596 352 352 352c194.404 0 352-157.596 352-352v0c-0.228-194.313-157.687-351.772-351.978-352h-0.022zM662.64 598.64c5.798-5.792 9.385-13.797 9.385-22.64s-3.587-16.848-9.385-22.64v0l-201.4-201.36h114.76c17.673 0 32-14.327 32-32s-14.327-32-32-32v0h-192c-17.673 0-32 14.327-32 32v0 192c0 17.673 14.327 32 32 32s32-14.327 32-32v0-114.76l201.36 201.4c5.792 5.798 13.797 9.385 22.64 9.385s16.848-3.587 22.64-9.385v0z" />
<glyph unicode="&#xe02c;" d="M896 448c0-212.077-171.923-384-384-384s-384 171.923-384 384c0 212.077 171.923 384 384 384v0c212.077 0 384-171.923 384-384v0z" />
<glyph unicode="&#xe02d;" d="M512 864c-229.75 0-416-186.25-416-416s186.25-416 416-416c229.75 0 416 186.25 416 416v0c-0.25 229.65-186.35 415.75-415.976 416h-0.024zM512 96c-194.404 0-352 157.596-352 352s157.596 352 352 352c194.404 0 352-157.596 352-352v0c-0.228-194.313-157.687-351.772-351.978-352h-0.022zM672 512v-192c0-17.673-14.327-32-32-32v0h-192c-17.673 0-32 14.327-32 32s14.327 32 32 32v0h114.76l-201.4 201.36c-5.794 5.794-9.378 13.799-9.378 22.64 0 17.683 14.335 32.018 32.018 32.018 8.841 0 16.846-3.584 22.64-9.378l201.36-201.4v114.76c0 17.673 14.327 32 32 32s32-14.327 32-32v0z" />
<glyph unicode="&#xe02e;" d="M896 448c0-212.077-171.923-384-384-384s-384 171.923-384 384c0 212.077 171.923 384 384 384v0c212.077 0 384-171.923 384-384v0z" />
<glyph unicode="&#xe02f;" d="M512 864c-229.75 0-416-186.25-416-416s186.25-416 416-416c229.75 0 416 186.25 416 416v0c-0.25 229.65-186.35 415.75-415.976 416h-0.024zM512 96c-194.404 0-352 157.596-352 352s157.596 352 352 352c194.404 0 352-157.596 352-352v0c-0.228-194.313-157.687-351.772-351.978-352h-0.022zM694.64 470.64c5.798-5.792 9.385-13.797 9.385-22.64s-3.587-16.848-9.385-22.64v0l-128-128c-5.794-5.794-13.799-9.378-22.64-9.378-17.683 0-32.018 14.335-32.018 32.018 0 8.841 3.584 16.846 9.378 22.64l73.4 73.36h-242.76c-17.673 0-32 14.327-32 32s14.327 32 32 32v0h242.76l-73.4 73.36c-5.794 5.794-9.378 13.799-9.378 22.64 0 17.683 14.335 32.018 32.018 32.018 8.841 0 16.846-3.584 22.64-9.378v0z" />
<glyph unicode="&#xe030;" d="M896 448c0-212.077-171.923-384-384-384s-384 171.923-384 384c0 212.077 171.923 384 384 384v0c212.077 0 384-171.923 384-384v0z" />
<glyph unicode="&#xe031;" d="M512 864c-229.75 0-416-186.25-416-416s186.25-416 416-416c229.75 0 416 186.25 416 416v0c-0.25 229.65-186.35 415.75-415.976 416h-0.024zM512 96c-194.404 0-352 157.596-352 352s157.596 352 352 352c194.404 0 352-157.596 352-352v0c-0.228-194.313-157.687-351.772-351.978-352h-0.022zM662.64 502.64c5.794-5.794 9.378-13.799 9.378-22.64 0-17.683-14.335-32.018-32.018-32.018-8.841 0-16.846 3.584-22.64 9.378l-73.36 73.4v-242.76c0-17.673-14.327-32-32-32s-32 14.327-32 32v0 242.76l-73.36-73.4c-5.794-5.794-13.799-9.378-22.64-9.378-17.683 0-32.018 14.335-32.018 32.018 0 8.841 3.584 16.846 9.378 22.64l128 128c5.792 5.798 13.797 9.385 22.64 9.385s16.848-3.587 22.64-9.385v0z" />
<glyph unicode="&#xe032;" d="M896 448c0-212.077-171.923-384-384-384s-384 171.923-384 384c0 212.077 171.923 384 384 384v0c212.077 0 384-171.923 384-384v0z" />
<glyph unicode="&#xe033;" d="M512 864c-229.75 0-416-186.25-416-416s186.25-416 416-416c229.75 0 416 186.25 416 416v0c-0.25 229.65-186.35 415.75-415.976 416h-0.024zM512 96c-194.404 0-352 157.596-352 352s157.596 352 352 352c194.404 0 352-157.596 352-352v0c-0.228-194.313-157.687-351.772-351.978-352h-0.022zM662.64 342.64c5.794-5.794 9.378-13.799 9.378-22.64 0-17.683-14.335-32.018-32.018-32.018-8.841 0-16.846 3.584-22.64 9.378l-201.36 201.4v-114.76c0-17.673-14.327-32-32-32s-32 14.327-32 32v0 192c0 17.673 14.327 32 32 32v0h192c17.673 0 32-14.327 32-32s-14.327-32-32-32v0h-114.76z" />
<glyph unicode="&#xe034;" d="M896 448c0-212.077-171.923-384-384-384s-384 171.923-384 384c0 212.077 171.923 384 384 384v0c212.077 0 384-171.923 384-384v0z" />
<glyph unicode="&#xe035;" d="M512 864c-229.75 0-416-186.25-416-416s186.25-416 416-416c229.75 0 416 186.25 416 416v0c-0.25 229.65-186.35 415.75-415.976 416h-0.024zM512 96c-194.404 0-352 157.596-352 352s157.596 352 352 352c194.404 0 352-157.596 352-352v0c-0.228-194.313-157.687-351.772-351.978-352h-0.022zM672 576v-192c0-17.673-14.327-32-32-32s-32 14.327-32 32v0 114.76l-201.36-201.4c-5.794-5.794-13.799-9.378-22.64-9.378-17.683 0-32.018 14.335-32.018 32.018 0 8.841 3.584 16.846 9.378 22.64l201.4 201.36h-114.76c-17.673 0-32 14.327-32 32s14.327 32 32 32v0h192c17.673 0 32-14.327 32-32v0z" />
<glyph unicode="&#xe036;" d="M864 448c0-194.404-157.596-352-352-352s-352 157.596-352 352c0 194.404 157.596 352 352 352v0c194.404 0 352-157.596 352-352v0z" />
<glyph unicode="&#xe037;" d="M960 736v-192c0-17.673-14.327-32-32-32v0h-192c-17.673 0-32 14.327-32 32s14.327 32 32 32v0h109.6l-107.36 98.4c-57.905 57.883-137.887 93.683-226.231 93.683-176.731 0-320-143.269-320-320s143.269-320 320-320c85.071 0 162.388 33.196 219.705 87.341l-0.154-0.144c5.723 5.422 13.472 8.756 22 8.756 17.682 0 32.016-14.334 32.016-32.016 0-9.154-3.842-17.411-10.002-23.246l-0.015-0.014c-68.29-64.864-160.837-104.761-262.702-104.761-0.302 0-0.603 0-0.905 0.001h-5.233c-209.803 2.965-378.741 173.736-378.741 383.964 0 212.077 171.923 384 384 384 105.786 0 201.582-42.776 271.032-111.975l-0.011 0.011 113-103.2v119.2c0 17.673 14.327 32 32 32s32-14.327 32-32v0z" />
<glyph unicode="&#xe038;" d="M864 448c0-194.404-157.596-352-352-352s-352 157.596-352 352c0 194.404 157.596 352 352 352v0c194.404 0 352-157.596 352-352v0z" />
<glyph unicode="&#xe039;" d="M896 448c0-0.010 0-0.022 0-0.035 0-210.263-168.993-381.055-378.566-383.962l-0.274-0.003h-5.16c-0.283-0.001-0.617-0.001-0.952-0.001-101.855 0-194.388 39.914-262.811 104.954l0.162-0.153c-6.174 5.849-10.016 14.106-10.016 23.26 0 17.682 14.334 32.016 32.016 32.016 8.528 0 16.277-3.334 22.015-8.77l-0.015 0.014c57.164-54.001 134.481-87.197 219.551-87.197 176.731 0 320 143.269 320 320s-143.269 320-320 320c-88.344 0-168.327-35.8-226.232-93.684l0.001 0.001c-0.327-0.353-0.666-0.68-1.024-0.986l-0.016-0.014-106.32-97.44h109.64c17.673 0 32-14.327 32-32s-14.327-32-32-32v0h-192c-17.673 0-32 14.327-32 32v0 192c0 17.673 14.327 32 32 32s32-14.327 32-32v0-119.2l113 103.2c69.437 69.175 165.224 111.943 271 111.943 212.057 0 383.968-171.89 384-383.94v-0.003z" />
<glyph unicode="&#xe03a;" d="M512 736v-384l-192 192z" />
<glyph unicode="&#xe03b;" d="M342.64 374.64c5.794-5.794 9.378-13.799 9.378-22.64 0-17.683-14.335-32.018-32.018-32.018-8.841 0-16.846 3.584-22.64 9.378l-192 192c-5.798 5.792-9.385 13.797-9.385 22.64s3.587 16.848 9.385 22.64v0l192 192c5.794 5.794 13.799 9.378 22.64 9.378 17.683 0 32.018-14.335 32.018-32.018 0-8.841-3.584-16.846-9.378-22.64l-169.4-169.36zM928 160c0-17.673-14.327-32-32-32s-32 14.327-32 32v0c-0.227 183.046-139.963 333.385-318.579 350.411l-1.421 0.109v-158.52c0-0.007 0-0.016 0-0.025 0-17.673-14.327-32-32-32-8.843 0-16.848 3.587-22.64 9.385v0l-192 192c-5.798 5.792-9.385 13.797-9.385 22.64s3.587 16.848 9.385 22.64v0l192 192c5.792 5.798 13.797 9.385 22.64 9.385 17.673 0 32-14.327 32-32 0-0.009 0-0.018 0-0.027v0.001-161.2c215.441-17.419 383.718-196.413 384-414.772v-0.028zM480 658.76l-114.76-114.76 114.76-114.76z" />
<glyph unicode="&#xe03c;" d="M704 544l-192-192v384z" />
<glyph unicode="&#xe03d;" d="M918.64 521.36l-192-192c-5.794-5.794-13.799-9.378-22.64-9.378-17.683 0-32.018 14.335-32.018 32.018 0 8.841 3.584 16.846 9.378 22.64l169.4 169.36-169.4 169.36c-5.794 5.794-9.378 13.799-9.378 22.64 0 17.683 14.335 32.018 32.018 32.018 8.841 0 16.846-3.584 22.64-9.378v0l192-192c5.798-5.792 9.385-13.797 9.385-22.64s-3.587-16.848-9.385-22.64v0zM726.64 521.36l-192-192c-5.792-5.798-13.797-9.385-22.64-9.385-17.673 0-32 14.327-32 32 0 0.009 0 0.018 0 0.027v-0.001 158.52c-180.037-17.135-319.773-167.474-320-350.497v-0.023c0-17.673-14.327-32-32-32s-32 14.327-32 32v0c0.283 218.387 168.56 397.382 382.522 414.704l1.478 0.096v161.2c0 0.007 0 0.016 0 0.025 0 17.673 14.327 32 32 32 8.843 0 16.848-3.587 22.64-9.385v0l192-192c5.798-5.792 9.385-13.797 9.385-22.64s-3.587-16.848-9.385-22.64v0zM658.64 544l-114.64 114.76v-229.52z" />
<glyph unicode="&#xe03e;" d="M800 384l-288-288-288 288z" />
<glyph unicode="&#xe03f;" d="M829.56 396.24c-4.934 11.696-16.306 19.757-29.56 19.76h-256v384c0 17.673-14.327 32-32 32s-32-14.327-32-32v0-384h-256c-0.007 0-0.016 0-0.025 0-17.673 0-32-14.327-32-32 0-8.843 3.587-16.848 9.385-22.64v0l288-288c5.792-5.798 13.797-9.385 22.64-9.385s16.848 3.587 22.64 9.385v0l288 288c5.785 5.79 9.363 13.786 9.363 22.618 0 4.425-0.898 8.639-2.522 12.472l0.079-0.21zM512 141.24l-210.76 210.76h421.52z" />
<glyph unicode="&#xe040;" d="M672 192h-416v416z" />
<glyph unicode="&#xe041;" d="M790.64 726.64c-5.792 5.798-13.797 9.385-22.64 9.385s-16.848-3.587-22.64-9.385v0l-281.36-281.4-185.36 185.4c-5.792 5.798-13.797 9.385-22.64 9.385-17.673 0-32-14.327-32-32 0-0.009 0-0.018 0-0.027v0.001-416c0-17.673 14.327-32 32-32v0h416c0.007 0 0.016 0 0.025 0 17.673 0 32 14.327 32 32 0 8.843-3.587 16.848-9.385 22.64v0l-185.4 185.36 281.4 281.36c5.798 5.792 9.385 13.797 9.385 22.64s-3.587 16.848-9.385 22.64v0zM288 224v306.76l306.76-306.76z" />
<glyph unicode="&#xe042;" d="M768 608v-416h-416z" />
<glyph unicode="&#xe043;" d="M780.24 637.56c-3.623 1.545-7.838 2.443-12.262 2.443-8.832 0-16.828-3.578-22.618-9.363v0l-185.36-185.4-281.36 281.4c-5.794 5.794-13.799 9.378-22.64 9.378-17.683 0-32.018-14.335-32.018-32.018 0-8.841 3.584-16.846 9.378-22.64l281.4-281.36-185.4-185.36c-5.798-5.792-9.385-13.797-9.385-22.64 0-17.673 14.327-32 32-32 0.009 0 0.018 0 0.027 0h415.999c17.673 0 32 14.327 32 32v0 416c-0.003 13.254-8.064 24.626-19.55 29.481l-0.21 0.079zM736 224h-306.76l306.76 306.76z" />
<glyph unicode="&#xe044;" d="M384 448v-384l-192 192z" />
<glyph unicode="&#xe045;" d="M768 864c-17.673 0-32-14.327-32-32v0-544h-320v160c0 0.007 0 0.016 0 0.025 0 17.673-14.327 32-32 32-8.843 0-16.848-3.587-22.64-9.385v0l-192-192c-5.798-5.792-9.385-13.797-9.385-22.64s3.587-16.848 9.385-22.64v0l192-192c5.792-5.798 13.797-9.385 22.64-9.385 17.673 0 32 14.327 32 32 0 0.009 0 0.018 0 0.027v-0.001 160h352c17.673 0 32 14.327 32 32v0 576c0 17.673-14.327 32-32 32v0zM352 141.24l-114.76 114.76 114.76 114.76z" />
<glyph unicode="&#xe046;" d="M864 256l-192-192v384z" />
<glyph unicode="&#xe047;" d="M886.64 278.64l-192 192c-5.792 5.798-13.797 9.385-22.64 9.385-17.673 0-32-14.327-32-32 0-0.009 0-0.018 0-0.027v0.001-160h-320v544c0 17.673-14.327 32-32 32s-32-14.327-32-32v0-576c0-17.673 14.327-32 32-32v0h352v-160c0-0.007 0-0.016 0-0.025 0-17.673 14.327-32 32-32 8.843 0 16.848 3.587 22.64 9.385v0l192 192c5.798 5.792 9.385 13.797 9.385 22.64s-3.587 16.848-9.385 22.64v0zM704 141.24v229.52l114.76-114.76z" />
<glyph unicode="&#xe048;" d="M384 640l-288-288v288z" />
<glyph unicode="&#xe049;" d="M950.64 598.64c-5.792 5.798-13.797 9.385-22.64 9.385s-16.848-3.587-22.64-9.385v0l-361.36-361.4-258.76 258.76 121.4 121.36c5.798 5.792 9.385 13.797 9.385 22.64 0 17.673-14.327 32-32 32-0.009 0-0.018 0-0.027 0h-287.999c-17.673 0-32-14.327-32-32v0-288c0-0.007 0-0.016 0-0.025 0-17.673 14.327-32 32-32 8.843 0 16.848 3.587 22.64 9.385l121.36 121.4 281.36-281.4c5.792-5.798 13.797-9.385 22.64-9.385s16.848 3.587 22.64 9.385v0l384 384c5.798 5.792 9.385 13.797 9.385 22.64s-3.587 16.848-9.385 22.64v0zM128 429.24v178.76h178.76z" />
<glyph unicode="&#xe04a;" d="M544 288l-192-192-192 192z" />
<glyph unicode="&#xe04b;" d="M928 704h-576c-17.673 0-32-14.327-32-32v0-352h-160c-0.007 0-0.016 0-0.025 0-17.673 0-32-14.327-32-32 0-8.843 3.587-16.848 9.385-22.64v0l192-192c5.792-5.798 13.797-9.385 22.64-9.385s16.848 3.587 22.64 9.385v0l192 192c5.798 5.792 9.385 13.797 9.385 22.64 0 17.673-14.327 32-32 32-0.009 0-0.018 0-0.027 0h-159.999v320h544c17.673 0 32 14.327 32 32s-14.327 32-32 32v0zM352 141.24l-114.76 114.76h229.52z" />
<glyph unicode="&#xe04c;" d="M544 576h-384l192 192z" />
<glyph unicode="&#xe04d;" d="M928 224h-544v320h160c0.007 0 0.016 0 0.025 0 17.673 0 32 14.327 32 32 0 8.843-3.587 16.848-9.385 22.64v0l-192 192c-5.792 5.798-13.797 9.385-22.64 9.385s-16.848-3.587-22.64-9.385v0l-192-192c-5.798-5.792-9.385-13.797-9.385-22.64 0-17.673 14.327-32 32-32 0.009 0 0.018 0 0.027 0h159.999v-352c0-17.673 14.327-32 32-32v0h576c17.673 0 32 14.327 32 32s-14.327 32-32 32v0zM352 722.76l114.76-114.76h-229.52z" />
<glyph unicode="&#xe04e;" d="M928 640v-288l-288 288z" />
<glyph unicode="&#xe04f;" d="M928 672h-288c-0.007 0-0.016 0-0.025 0-17.673 0-32-14.327-32-32 0-8.843 3.587-16.848 9.385-22.64l121.4-121.36-258.76-258.76-361.36 361.4c-5.794 5.794-13.799 9.378-22.64 9.378-17.683 0-32.018-14.335-32.018-32.018 0-8.841 3.584-16.846 9.378-22.64v0l384-384c5.792-5.798 13.797-9.385 22.64-9.385s16.848 3.587 22.64 9.385v0l281.36 281.4 121.36-121.4c5.792-5.798 13.797-9.385 22.64-9.385 17.673 0 32 14.327 32 32 0 0.009 0 0.018 0 0.027v-0.001 288c0 17.673-14.327 32-32 32v0zM896 429.24l-178.76 178.76h178.76z" />
<glyph unicode="&#xe050;" d="M896 320l-192-192-192 192z" />
<glyph unicode="&#xe051;" d="M925.56 332.24c-4.934 11.696-16.306 19.757-29.56 19.76h-160v352c0 17.673-14.327 32-32 32v0h-576c-17.673 0-32-14.327-32-32s14.327-32 32-32v0h544v-320h-160c-0.007 0-0.016 0-0.025 0-17.673 0-32-14.327-32-32 0-8.843 3.587-16.848 9.385-22.64v0l192-192c5.792-5.798 13.797-9.385 22.64-9.385s16.848 3.587 22.64 9.385v0l192 192c5.785 5.79 9.363 13.786 9.363 22.618 0 4.425-0.898 8.639-2.522 12.472l0.079-0.21zM704 173.24l-114.76 114.76h229.52z" />
<glyph unicode="&#xe052;" d="M864 576h-384l192 192z" />
<glyph unicode="&#xe053;" d="M886.64 598.64l-192 192c-5.792 5.798-13.797 9.385-22.64 9.385s-16.848-3.587-22.64-9.385v0l-192-192c-5.798-5.792-9.385-13.797-9.385-22.64 0-17.673 14.327-32 32-32 0.009 0 0.018 0 0.027 0h159.999v-320h-544c-17.673 0-32-14.327-32-32s14.327-32 32-32v0h576c17.673 0 32 14.327 32 32v0 352h160c0.007 0 0.016 0 0.025 0 17.673 0 32 14.327 32 32 0 8.843-3.587 16.848-9.385 22.64v0zM557.24 608l114.76 114.76 114.76-114.76z" />
<glyph unicode="&#xe054;" d="M384 832v-384l-192 192z" />
<glyph unicode="&#xe055;" d="M768 672h-352v160c0 0.007 0 0.016 0 0.025 0 17.673-14.327 32-32 32-8.843 0-16.848-3.587-22.64-9.385v0l-192-192c-5.798-5.792-9.385-13.797-9.385-22.64s3.587-16.848 9.385-22.64v0l192-192c5.792-5.798 13.797-9.385 22.64-9.385 17.673 0 32 14.327 32 32 0 0.009 0 0.018 0 0.027v-0.001 160h320v-544c0-17.673 14.327-32 32-32s32 14.327 32 32v0 576c0 17.673-14.327 32-32 32v0zM352 525.24l-114.76 114.76 114.76 114.76z" />
<glyph unicode="&#xe056;" d="M864 640l-192-192v384z" />
<glyph unicode="&#xe057;" d="M886.64 662.64l-192 192c-5.792 5.798-13.797 9.385-22.64 9.385-17.673 0-32-14.327-32-32 0-0.009 0-0.018 0-0.027v0.001-160h-352c-17.673 0-32-14.327-32-32v0-576c0-17.673 14.327-32 32-32s32 14.327 32 32v0 544h320v-160c0-0.007 0-0.016 0-0.025 0-17.673 14.327-32 32-32 8.843 0 16.848 3.587 22.64 9.385v0l192 192c5.798 5.792 9.385 13.797 9.385 22.64s-3.587 16.848-9.385 22.64v0zM704 525.24v229.52l114.76-114.76z" />
<glyph unicode="&#xe058;" d="M448 736v-576l-288 288z" />
<glyph unicode="&#xe059;" d="M864 480h-384v256c0 0.007 0 0.016 0 0.025 0 17.673-14.327 32-32 32-8.843 0-16.848-3.587-22.64-9.385v0l-288-288c-5.798-5.792-9.385-13.797-9.385-22.64s3.587-16.848 9.385-22.64v0l288-288c5.792-5.798 13.797-9.385 22.64-9.385 17.673 0 32 14.327 32 32 0 0.009 0 0.018 0 0.027v-0.001 256h384c17.673 0 32 14.327 32 32s-14.327 32-32 32v0zM416 237.24l-210.76 210.76 210.76 210.76z" />
<glyph unicode="&#xe05a;" d="M896 448c0-212.077-171.923-384-384-384s-384 171.923-384 384c0 212.077 171.923 384 384 384v0c212.077 0 384-171.923 384-384v0z" />
<glyph unicode="&#xe05b;" d="M512 864c-229.75 0-416-186.25-416-416s186.25-416 416-416c229.75 0 416 186.25 416 416v0c-0.25 229.65-186.35 415.75-415.976 416h-0.024zM512 96c-194.404 0-352 157.596-352 352s157.596 352 352 352c194.404 0 352-157.596 352-352v0c-0.228-194.313-157.687-351.772-351.978-352h-0.022zM704 448c0-17.673-14.327-32-32-32v0h-242.76l73.4-73.36c5.794-5.794 9.378-13.799 9.378-22.64 0-17.683-14.335-32.018-32.018-32.018-8.841 0-16.846 3.584-22.64 9.378l-128 128c-5.798 5.792-9.385 13.797-9.385 22.64s3.587 16.848 9.385 22.64v0l128 128c5.794 5.794 13.799 9.378 22.64 9.378 17.683 0 32.018-14.335 32.018-32.018 0-8.841-3.584-16.846-9.378-22.64l-73.4-73.36h242.76c17.673 0 32-14.327 32-32v0z" />
<glyph unicode="&#xe05c;" d="M800 512l-288-288-288 288z" />
<glyph unicode="&#xe05d;" d="M489.36 201.36c5.792-5.798 13.797-9.385 22.64-9.385s16.848 3.587 22.64 9.385v0l288 288c5.798 5.792 9.385 13.797 9.385 22.64 0 17.673-14.327 32-32 32-0.009 0-0.018 0-0.027 0h-255.999v288c0 17.673-14.327 32-32 32s-32-14.327-32-32v0-288h-256c-0.007 0-0.016 0-0.025 0-17.673 0-32-14.327-32-32 0-8.843 3.587-16.848 9.385-22.64v0zM722.76 480l-210.76-210.76-210.76 210.76zM896 96c0-17.673-14.327-32-32-32v0h-704c-17.673 0-32 14.327-32 32s14.327 32 32 32v0h704c17.673 0 32-14.327 32-32v0z" />
<glyph unicode="&#xe05e;" d="M672 128h-384v384z" />
<glyph unicode="&#xe05f;" d="M928 768c0-17.673-14.327-32-32-32v0h-704c-17.673 0-32 14.327-32 32s14.327 32 32 32v0h704c17.673 0 32-14.327 32-32v0zM758.64 598.64c5.798-5.792 9.385-13.797 9.385-22.64s-3.587-16.848-9.385-22.64v0l-233.4-233.36 169.4-169.36c5.798-5.792 9.385-13.797 9.385-22.64 0-17.673-14.327-32-32-32-0.009 0-0.018 0-0.027 0h-383.999c-17.673 0-32 14.327-32 32v0 384c0 0.007 0 0.016 0 0.025 0 17.673 14.327 32 32 32 8.843 0 16.848-3.587 22.64-9.385v0l169.36-169.4 233.36 233.4c5.792 5.798 13.797 9.385 22.64 9.385s16.848-3.587 22.64-9.385v0zM594.76 160l-274.76 274.76v-274.76z" />
<glyph unicode="&#xe060;" d="M768 544v-384h-384z" />
<glyph unicode="&#xe061;" d="M896 800c0-17.673-14.327-32-32-32v0h-704c-17.673 0-32 14.327-32 32s14.327 32 32 32v0h704c17.673 0 32-14.327 32-32v0zM800 544v-384c0-17.673-14.327-32-32-32v0h-384c-0.007 0-0.016 0-0.025 0-17.673 0-32 14.327-32 32 0 8.843 3.587 16.848 9.385 22.64v0l169.4 169.36-233.4 233.36c-5.794 5.794-9.378 13.799-9.378 22.64 0 17.683 14.335 32.018 32.018 32.018 8.841 0 16.846-3.584 22.64-9.378l233.36-233.4 169.36 169.4c5.792 5.798 13.797 9.385 22.64 9.385 17.673 0 32-14.327 32-32 0-0.009 0-0.018 0-0.027v0.001zM736 466.76l-274.76-274.76h274.76z" />
<glyph unicode="&#xe062;" d="M576 736v-576l-288 288z" />
<glyph unicode="&#xe063;" d="M896 480h-288v256c0 0.007 0 0.016 0 0.025 0 17.673-14.327 32-32 32-8.843 0-16.848-3.587-22.64-9.385v0l-288-288c-5.798-5.792-9.385-13.797-9.385-22.64s3.587-16.848 9.385-22.64v0l288-288c5.792-5.798 13.797-9.385 22.64-9.385 17.673 0 32 14.327 32 32 0 0.009 0 0.018 0 0.027v-0.001 256h288c17.673 0 32 14.327 32 32s-14.327 32-32 32v0zM544 237.24l-210.76 210.76 210.76 210.76zM192 800v-704c0-17.673-14.327-32-32-32s-32 14.327-32 32v0 704c0 17.673 14.327 32 32 32s32-14.327 32-32v0z" />
<glyph unicode="&#xe064;" d="M736 448l-288-288v576z" />
<glyph unicode="&#xe065;" d="M470.64 758.64c-5.792 5.798-13.797 9.385-22.64 9.385-17.673 0-32-14.327-32-32 0-0.009 0-0.018 0-0.027v0.001-256h-288c-17.673 0-32-14.327-32-32s14.327-32 32-32v0h288v-256c0-0.007 0-0.016 0-0.025 0-17.673 14.327-32 32-32 8.843 0 16.848 3.587 22.64 9.385v0l288 288c5.798 5.792 9.385 13.797 9.385 22.64s-3.587 16.848-9.385 22.64v0zM480 237.24v421.52l210.76-210.76zM896 800v-704c0-17.673-14.327-32-32-32s-32 14.327-32 32v0 704c0 17.673 14.327 32 32 32s32-14.327 32-32v0z" />
<glyph unicode="&#xe066;" d="M800 384h-576l288 288z" />
<glyph unicode="&#xe067;" d="M534.64 694.64c-5.792 5.798-13.797 9.385-22.64 9.385s-16.848-3.587-22.64-9.385v0l-288-288c-5.798-5.792-9.385-13.797-9.385-22.64 0-17.673 14.327-32 32-32 0.009 0 0.018 0 0.027 0h255.999v-288c0-17.673 14.327-32 32-32s32 14.327 32 32v0 288h256c0.007 0 0.016 0 0.025 0 17.673 0 32 14.327 32 32 0 8.843-3.587 16.848-9.385 22.64v0zM301.24 416l210.76 210.76 210.76-210.76zM896 800c0-17.673-14.327-32-32-32v0h-704c-17.673 0-32 14.327-32 32s14.327 32 32 32v0h704c17.673 0 32-14.327 32-32v0z" />
<glyph unicode="&#xe068;" d="M672 768l-384-384v384z" />
<glyph unicode="&#xe069;" d="M928 128c0-17.673-14.327-32-32-32v0h-704c-17.673 0-32 14.327-32 32s14.327 32 32 32v0h704c17.673 0 32-14.327 32-32v0zM256 384v384c0 17.673 14.327 32 32 32v0h384c0.007 0 0.016 0 0.025 0 17.673 0 32-14.327 32-32 0-8.843-3.587-16.848-9.385-22.64v0l-169.4-169.36 233.4-233.36c5.794-5.794 9.378-13.799 9.378-22.64 0-17.683-14.335-32.018-32.018-32.018-8.841 0-16.846 3.584-22.64 9.378l-233.36 233.4-169.36-169.4c-5.792-5.798-13.797-9.385-22.64-9.385-17.673 0-32 14.327-32 32 0 0.009 0 0.018 0 0.027v-0.001zM320 461.24l274.76 274.76h-274.76z" />
<glyph unicode="&#xe06a;" d="M768 736v-384l-384 384z" />
<glyph unicode="&#xe06b;" d="M896 96c0-17.673-14.327-32-32-32v0h-704c-17.673 0-32 14.327-32 32s14.327 32 32 32v0h704c17.673 0 32-14.327 32-32v0zM297.36 265.36c-5.798 5.792-9.385 13.797-9.385 22.64s3.587 16.848 9.385 22.64v0l233.4 233.36-169.4 169.36c-5.798 5.792-9.385 13.797-9.385 22.64 0 17.673 14.327 32 32 32 0.009 0 0.018 0 0.027 0h383.999c17.673 0 32-14.327 32-32v0-384c0-0.007 0-0.016 0-0.025 0-17.673-14.327-32-32-32-8.843 0-16.848 3.587-22.64 9.385v0l-169.36 169.4-233.36-233.4c-5.792-5.798-13.797-9.385-22.64-9.385s-16.848 3.587-22.64 9.385v0zM461.24 704l274.76-274.76v274.76z" />
<glyph unicode="&#xe06c;" d="M864 448l-288-288v576z" />
<glyph unicode="&#xe06d;" d="M886.64 470.64l-288 288c-5.792 5.798-13.797 9.385-22.64 9.385-17.673 0-32-14.327-32-32 0-0.009 0-0.018 0-0.027v0.001-256h-384c-17.673 0-32-14.327-32-32s14.327-32 32-32v0h384v-256c0-0.007 0-0.016 0-0.025 0-17.673 14.327-32 32-32 8.843 0 16.848 3.587 22.64 9.385v0l288 288c5.798 5.792 9.385 13.797 9.385 22.64s-3.587 16.848-9.385 22.64v0zM608 237.24v421.52l210.76-210.76z" />
<glyph unicode="&#xe06e;" d="M864 768v-640c0-17.673-14.327-32-32-32v0h-640c-17.673 0-32 14.327-32 32v0 640c0 17.673 14.327 32 32 32v0h640c17.673 0 32-14.327 32-32v0z" />
<glyph unicode="&#xe06f;" d="M832 832h-640c-35.346 0-64-28.654-64-64v0-640c0-35.346 28.654-64 64-64v0h640c35.346 0 64 28.654 64 64v0 640c0 35.346-28.654 64-64 64v0zM832 128h-640v640h640v-640zM662.64 438.64c5.798-5.792 9.385-13.797 9.385-22.64s-3.587-16.848-9.385-22.64v0l-128-128c-5.792-5.798-13.797-9.385-22.64-9.385s-16.848 3.587-22.64 9.385v0l-128 128c-5.794 5.794-9.378 13.799-9.378 22.64 0 17.683 14.335 32.018 32.018 32.018 8.841 0 16.846-3.584 22.64-9.378l73.36-73.4v242.76c0 17.673 14.327 32 32 32s32-14.327 32-32v0-242.76l73.36 73.4c5.792 5.798 13.797 9.385 22.64 9.385s16.848-3.587 22.64-9.385v0z" />
<glyph unicode="&#xe070;" d="M864 768v-640c0-17.673-14.327-32-32-32v0h-640c-17.673 0-32 14.327-32 32v0 640c0 17.673 14.327 32 32 32v0h640c17.673 0 32-14.327 32-32v0z" />
<glyph unicode="&#xe071;" d="M832 832h-640c-35.346 0-64-28.654-64-64v0-640c0-35.346 28.654-64 64-64v0h640c35.346 0 64 28.654 64 64v0 640c0 35.346-28.654 64-64 64v0zM832 128h-640v640h640zM352 320v192c0 17.673 14.327 32 32 32s32-14.327 32-32v0-114.76l201.36 201.4c5.794 5.794 13.799 9.378 22.64 9.378 17.683 0 32.018-14.335 32.018-32.018 0-8.841-3.584-16.846-9.378-22.64l-201.4-201.36h114.76c17.673 0 32-14.327 32-32s-14.327-32-32-32v0h-192c-17.673 0-32 14.327-32 32v0z" />
<glyph unicode="&#xe072;" d="M864 768v-640c0-17.673-14.327-32-32-32v0h-640c-17.673 0-32 14.327-32 32v0 640c0 17.673 14.327 32 32 32v0h640c17.673 0 32-14.327 32-32v0z" />
<glyph unicode="&#xe073;" d="M832 832h-640c-35.346 0-64-28.654-64-64v0-640c0-35.346 28.654-64 64-64v0h640c35.346 0 64 28.654 64 64v0 640c0 35.346-28.654 64-64 64v0zM832 128h-640v640h640zM361.36 553.36c-5.794 5.794-9.378 13.799-9.378 22.64 0 17.683 14.335 32.018 32.018 32.018 8.841 0 16.846-3.584 22.64-9.378l201.36-201.4v114.76c0 17.673 14.327 32 32 32s32-14.327 32-32v0-192c0-17.673-14.327-32-32-32v0h-192c-17.673 0-32 14.327-32 32s14.327 32 32 32v0h114.76z" />
<glyph unicode="&#xe074;" d="M864 768v-640c0-17.673-14.327-32-32-32v0h-640c-17.673 0-32 14.327-32 32v0 640c0 17.673 14.327 32 32 32v0h640c17.673 0 32-14.327 32-32v0z" />
<glyph unicode="&#xe075;" d="M832 832h-640c-35.346 0-64-28.654-64-64v0-640c0-35.346 28.654-64 64-64v0h640c35.346 0 64 28.654 64 64v0 640c0 35.346-28.654 64-64 64v0zM832 128h-640v640h640zM329.36 425.36c-5.798 5.792-9.385 13.797-9.385 22.64s3.587 16.848 9.385 22.64v0l128 128c5.794 5.794 13.799 9.378 22.64 9.378 17.683 0 32.018-14.335 32.018-32.018 0-8.841-3.584-16.846-9.378-22.64l-73.4-73.36h242.76c17.673 0 32-14.327 32-32s-14.327-32-32-32v0h-242.76l73.4-73.36c5.794-5.794 9.378-13.799 9.378-22.64 0-17.683-14.335-32.018-32.018-32.018-8.841 0-16.846 3.584-22.64 9.378v0z" />
<glyph unicode="&#xe076;" d="M864 768v-640c0-17.673-14.327-32-32-32v0h-640c-17.673 0-32 14.327-32 32v0 640c0 17.673 14.327 32 32 32v0h640c17.673 0 32-14.327 32-32v0z" />
<glyph unicode="&#xe077;" d="M832 832h-640c-35.346 0-64-28.654-64-64v0-640c0-35.346 28.654-64 64-64v0h640c35.346 0 64 28.654 64 64v0 640c0 35.346-28.654 64-64 64v0zM832 128h-640v640h640zM320 448c0 17.673 14.327 32 32 32v0h242.76l-73.4 73.36c-5.794 5.794-9.378 13.799-9.378 22.64 0 17.683 14.335 32.018 32.018 32.018 8.841 0 16.846-3.584 22.64-9.378l128-128c5.798-5.792 9.385-13.797 9.385-22.64s-3.587-16.848-9.385-22.64v0l-128-128c-5.794-5.794-13.799-9.378-22.64-9.378-17.683 0-32.018 14.335-32.018 32.018 0 8.841 3.584 16.846 9.378 22.64l73.4 73.36h-242.76c-17.673 0-32 14.327-32 32v0z" />
<glyph unicode="&#xe078;" d="M864 768v-640c0-17.673-14.327-32-32-32v0h-640c-17.673 0-32 14.327-32 32v0 640c0 17.673 14.327 32 32 32v0h640c17.673 0 32-14.327 32-32v0z" />
<glyph unicode="&#xe079;" d="M832 832h-640c-35.346 0-64-28.654-64-64v0-640c0-35.346 28.654-64 64-64v0h640c35.346 0 64 28.654 64 64v0 640c0 35.346-28.654 64-64 64v0zM832 128h-640v640h640zM361.36 457.36c-5.798 5.792-9.385 13.797-9.385 22.64s3.587 16.848 9.385 22.64v0l128 128c5.792 5.798 13.797 9.385 22.64 9.385s16.848-3.587 22.64-9.385v0l128-128c5.794-5.794 9.378-13.799 9.378-22.64 0-17.683-14.335-32.018-32.018-32.018-8.841 0-16.846 3.584-22.64 9.378l-73.36 73.4v-242.76c0-17.673-14.327-32-32-32s-32 14.327-32 32v0 242.76l-73.36-73.4c-5.792-5.798-13.797-9.385-22.64-9.385s-16.848 3.587-22.64 9.385v0z" />
<glyph unicode="&#xe07a;" d="M864 768v-640c0-17.673-14.327-32-32-32v0h-640c-17.673 0-32 14.327-32 32v0 640c0 17.673 14.327 32 32 32v0h640c17.673 0 32-14.327 32-32v0z" />
<glyph unicode="&#xe07b;" d="M832 832h-640c-35.346 0-64-28.654-64-64v0-640c0-35.346 28.654-64 64-64v0h640c35.346 0 64 28.654 64 64v0 640c0 35.346-28.654 64-64 64v0zM832 128h-640v640h640zM352 384v192c0 17.673 14.327 32 32 32v0h192c17.673 0 32-14.327 32-32s-14.327-32-32-32v0h-114.76l201.4-201.36c5.794-5.794 9.378-13.799 9.378-22.64 0-17.683-14.335-32.018-32.018-32.018-8.841 0-16.846 3.584-22.64 9.378l-201.36 201.4v-114.76c0-17.673-14.327-32-32-32s-32 14.327-32 32v0z" />
<glyph unicode="&#xe07c;" d="M864 768v-640c0-17.673-14.327-32-32-32v0h-640c-17.673 0-32 14.327-32 32v0 640c0 17.673 14.327 32 32 32v0h640c17.673 0 32-14.327 32-32v0z" />
<glyph unicode="&#xe07d;" d="M832 832h-640c-35.346 0-64-28.654-64-64v0-640c0-35.346 28.654-64 64-64v0h640c35.346 0 64 28.654 64 64v0 640c0 35.346-28.654 64-64 64v0zM832 128h-640v640h640zM361.36 297.36c-5.798 5.792-9.385 13.797-9.385 22.64s3.587 16.848 9.385 22.64v0l201.4 201.36h-114.76c-17.673 0-32 14.327-32 32s14.327 32 32 32v0h192c17.673 0 32-14.327 32-32v0-192c0-17.673-14.327-32-32-32s-32 14.327-32 32v0 114.76l-201.36-201.4c-5.792-5.798-13.797-9.385-22.64-9.385s-16.848 3.587-22.64 9.385v0z" />
<glyph unicode="&#xe07e;" d="M320 480v-384l-192 192z" />
<glyph unicode="&#xe07f;" d="M672 768h-352c-17.673 0-32-14.327-32-32s14.327-32 32-32v0h352c106.039 0 192-85.961 192-192s-85.961-192-192-192v0h-320v160c0 0.007 0 0.016 0 0.025 0 17.673-14.327 32-32 32-8.843 0-16.848-3.587-22.64-9.385v0l-192-192c-5.798-5.792-9.385-13.797-9.385-22.64s3.587-16.848 9.385-22.64v0l192-192c5.792-5.798 13.797-9.385 22.64-9.385 17.673 0 32 14.327 32 32 0 0.009 0 0.018 0 0.027v-0.001 160h320c141.385 0 256 114.615 256 256s-114.615 256-256 256v0zM288 173.24l-114.76 114.76 114.76 114.76z" />
<glyph unicode="&#xe080;" d="M896 288l-192-192v384z" />
<glyph unicode="&#xe081;" d="M918.64 310.64l-192 192c-5.792 5.798-13.797 9.385-22.64 9.385-17.673 0-32-14.327-32-32 0-0.009 0-0.018 0-0.027v0.001-160h-320c-106.039 0-192 85.961-192 192s85.961 192 192 192v0h352c17.673 0 32 14.327 32 32s-14.327 32-32 32v0h-352c-141.385 0-256-114.615-256-256s114.615-256 256-256v0h320v-160c0-0.007 0-0.016 0-0.025 0-17.673 14.327-32 32-32 8.843 0 16.848 3.587 22.64 9.385v0l192 192c5.798 5.792 9.385 13.797 9.385 22.64s-3.587 16.848-9.385 22.64v0zM736 173.24v229.52l114.76-114.76z" />
<glyph unicode="&#xe082;" d="M544 256l-192-192-192 192z" />
<glyph unicode="&#xe083;" d="M576 864c-141.321-0.159-255.841-114.679-256-255.985v-320.015h-160c-0.007 0-0.016 0-0.025 0-17.673 0-32-14.327-32-32 0-8.843 3.587-16.848 9.385-22.64v0l192-192c5.792-5.798 13.797-9.385 22.64-9.385s16.848 3.587 22.64 9.385v0l192 192c5.798 5.792 9.385 13.797 9.385 22.64 0 17.673-14.327 32-32 32-0.009 0-0.018 0-0.027 0h-159.999v320c0 106.039 85.961 192 192 192s192-85.961 192-192v0-352c0-17.673 14.327-32 32-32s32 14.327 32 32v0 352c-0.159 141.321-114.679 255.841-255.985 256h-0.015zM352 109.24l-114.76 114.76h229.52z" />
<glyph unicode="&#xe084;" d="M544 640h-384l192 192z" />
<glyph unicode="&#xe085;" d="M800 672c-17.673 0-32-14.327-32-32v0-352c0-106.039-85.961-192-192-192s-192 85.961-192 192v0 320h160c0.007 0 0.016 0 0.025 0 17.673 0 32 14.327 32 32 0 8.843-3.587 16.848-9.385 22.64v0l-192 192c-5.792 5.798-13.797 9.385-22.64 9.385s-16.848-3.587-22.64-9.385v0l-192-192c-5.798-5.792-9.385-13.797-9.385-22.64 0-17.673 14.327-32 32-32 0.009 0 0.018 0 0.027 0h159.999v-320c0-141.385 114.615-256 256-256s256 114.615 256 256v0 352c0 17.673-14.327 32-32 32v0zM352 786.76l114.76-114.76h-229.52z" />
<glyph unicode="&#xe086;" d="M864 256l-192-192-192 192z" />
<glyph unicode="&#xe087;" d="M893.56 268.24c-4.934 11.696-16.306 19.757-29.56 19.76h-160v320c0 141.385-114.615 256-256 256s-256-114.615-256-256v0-352c0-17.673 14.327-32 32-32s32 14.327 32 32v0 352c0 106.039 85.961 192 192 192s192-85.961 192-192v0-320h-160c-0.007 0-0.016 0-0.025 0-17.673 0-32-14.327-32-32 0-8.843 3.587-16.848 9.385-22.64v0l192-192c5.792-5.798 13.797-9.385 22.64-9.385s16.848 3.587 22.64 9.385v0l192 192c5.785 5.79 9.363 13.786 9.363 22.618 0 4.425-0.898 8.639-2.522 12.472l0.079-0.21zM672 109.24l-114.76 114.76h229.52z" />
<glyph unicode="&#xe088;" d="M864 640h-384l192 192z" />
<glyph unicode="&#xe089;" d="M886.64 662.64l-192 192c-5.792 5.798-13.797 9.385-22.64 9.385s-16.848-3.587-22.64-9.385v0l-192-192c-5.798-5.792-9.385-13.797-9.385-22.64 0-17.673 14.327-32 32-32 0.009 0 0.018 0 0.027 0h159.999v-320c0-106.039-85.961-192-192-192s-192 85.961-192 192v0 352c0 17.673-14.327 32-32 32s-32-14.327-32-32v0-352c0-141.385 114.615-256 256-256s256 114.615 256 256v0 320h160c0.007 0 0.016 0 0.025 0 17.673 0 32 14.327 32 32 0 8.843-3.587 16.848-9.385 22.64v0zM557.24 672l114.76 114.76 114.76-114.76z" />
<glyph unicode="&#xe08a;" d="M320 800v-384l-192 192z" />
<glyph unicode="&#xe08b;" d="M672 640h-320v160c0 0.007 0 0.016 0 0.025 0 17.673-14.327 32-32 32-8.843 0-16.848-3.587-22.64-9.385v0l-192-192c-5.798-5.792-9.385-13.797-9.385-22.64s3.587-16.848 9.385-22.64v0l192-192c5.792-5.798 13.797-9.385 22.64-9.385 17.673 0 32 14.327 32 32 0 0.009 0 0.018 0 0.027v-0.001 160h320c106.039 0 192-85.961 192-192s-85.961-192-192-192v0h-352c-17.673 0-32-14.327-32-32s14.327-32 32-32v0h352c141.385 0 256 114.615 256 256s-114.615 256-256 256v0zM288 493.24l-114.76 114.76 114.76 114.76z" />
<glyph unicode="&#xe08c;" d="M896 608l-192-192v384z" />
<glyph unicode="&#xe08d;" d="M691.76 386.44c3.623-1.545 7.838-2.443 12.262-2.443 8.832 0 16.828 3.578 22.618 9.363l192 192c5.798 5.792 9.385 13.797 9.385 22.64s-3.587 16.848-9.385 22.64v0l-192 192c-5.792 5.798-13.797 9.385-22.64 9.385-17.673 0-32-14.327-32-32 0-0.009 0-0.018 0-0.027v0.001-160h-320c-141.385 0-256-114.615-256-256s114.615-256 256-256v0h352c17.673 0 32 14.327 32 32s-14.327 32-32 32v0h-352c-106.039 0-192 85.961-192 192s85.961 192 192 192v0h320v-160c0.003-13.254 8.064-24.626 19.55-29.481l0.21-0.079zM736 722.76l114.76-114.76-114.76-114.76z" />
<glyph unicode="&#xe08e;" d="M800 512h-576l288 288z" />
<glyph unicode="&#xe08f;" d="M822.64 534.64l-288 288c-5.792 5.798-13.797 9.385-22.64 9.385s-16.848-3.587-22.64-9.385v0l-288-288c-5.798-5.792-9.385-13.797-9.385-22.64 0-17.673 14.327-32 32-32 0.009 0 0.018 0 0.027 0h255.999v-384c0-17.673 14.327-32 32-32s32 14.327 32 32v0 384h256c0.007 0 0.016 0 0.025 0 17.673 0 32 14.327 32 32 0 8.843-3.587 16.848-9.385 22.64v0zM301.24 544l210.76 210.76 210.76-210.76z" />
<glyph unicode="&#xe090;" d="M672 704l-416-416v416z" />
<glyph unicode="&#xe091;" d="M790.64 214.64l-281.4 281.36 185.4 185.36c5.798 5.792 9.385 13.797 9.385 22.64 0 17.673-14.327 32-32 32-0.009 0-0.018 0-0.027 0h-415.999c-17.673 0-32-14.327-32-32v0-416c0-0.007 0-0.016 0-0.025 0-17.673 14.327-32 32-32 8.843 0 16.848 3.587 22.64 9.385v0l185.36 185.4 281.36-281.4c5.794-5.794 13.799-9.378 22.64-9.378 17.683 0 32.018 14.335 32.018 32.018 0 8.841-3.584 16.846-9.378 22.64v0zM288 672h306.76l-306.76-306.76z" />
<glyph unicode="&#xe092;" d="M768 704v-416l-416 416z" />
<glyph unicode="&#xe093;" d="M768 736h-416c-0.007 0-0.016 0-0.025 0-17.673 0-32-14.327-32-32 0-8.843 3.587-16.848 9.385-22.64v0l185.4-185.36-281.4-281.36c-5.794-5.794-9.378-13.799-9.378-22.64 0-17.683 14.335-32.018 32.018-32.018 8.841 0 16.846 3.584 22.64 9.378l281.36 281.4 185.36-185.4c5.792-5.798 13.797-9.385 22.64-9.385 17.673 0 32 14.327 32 32 0 0.009 0 0.018 0 0.027v-0.001 416c0 17.673-14.327 32-32 32v0zM736 365.24l-306.76 306.76h306.76z" />
<glyph unicode="&#xe094;" d="M864 448c0-194.404-157.596-352-352-352s-352 157.596-352 352c0 194.404 157.596 352 352 352v0c194.404 0 352-157.596 352-352v0z" />
<glyph unicode="&#xe095;" d="M896 768v-192c0-17.673-14.327-32-32-32v0h-192c-17.673 0-32 14.327-32 32s14.327 32 32 32v0h114.76l-58.52 58.52c-57.406 57.66-136.758 93.43-224.465 93.72h-1.855c-0.221 0.001-0.483 0.001-0.746 0.001-86.795 0-165.47-34.764-222.862-91.127l0.048 0.047c-5.702-5.333-13.387-8.608-21.836-8.608-17.673 0-32 14.327-32 32 0 8.708 3.479 16.604 9.122 22.374l-0.006-0.006c69.165 67.643 163.909 109.38 268.402 109.38 106.073 0 202.101-43.008 271.596-112.538l0.002-0.002 58.36-58.52v114.76c0 17.673 14.327 32 32 32s32-14.327 32-32v0zM745.64 226.84c-57.63-56.332-136.559-91.087-223.604-91.087-88.366 0-168.367 35.818-226.276 93.727l-58.52 58.52h114.76c17.673 0 32 14.327 32 32s-14.327 32-32 32v0h-192c-17.673 0-32-14.327-32-32v0-192c0-17.673 14.327-32 32-32s32 14.327 32 32v0 114.76l58.52-58.52c68.889-69.226 164.139-112.163 269.42-112.48h2.18c0.292-0.001 0.637-0.001 0.983-0.001 104.133 0 198.52 41.728 267.352 109.375l-0.055-0.054c5.638 5.764 9.116 13.66 9.116 22.368 0 17.673-14.327 32-32 32-8.45 0-16.135-3.275-21.854-8.625l0.018 0.017z" />
<glyph unicode="&#xe096;" d="M864 448c0-194.404-157.596-352-352-352s-352 157.596-352 352c0 194.404 157.596 352 352 352v0c194.404 0 352-157.596 352-352v0z" />
<glyph unicode="&#xe097;" d="M352 544h-192c-17.673 0-32 14.327-32 32v0 192c0 17.673 14.327 32 32 32s32-14.327 32-32v0-114.76l58.52 58.52c68.889 69.226 164.139 112.163 269.42 112.48h2.18c0.292 0.001 0.637 0.001 0.983 0.001 104.133 0 198.52-41.728 267.352-109.375l-0.055 0.054c5.638-5.764 9.116-13.66 9.116-22.368 0-17.673-14.327-32-32-32-8.45 0-16.135 3.275-21.854 8.625l0.018-0.017c-57.344 56.317-136.019 91.081-222.814 91.081-0.262 0-0.524 0-0.786-0.001h-1.759c-87.777-0.279-167.145-36.051-224.549-93.708l-0.011-0.012-58.52-58.52h114.76c17.673 0 32-14.327 32-32s-14.327-32-32-32v0zM864 352h-192c-17.673 0-32-14.327-32-32s14.327-32 32-32v0h114.76l-58.52-58.52c-57.406-57.66-136.758-93.43-224.465-93.72h-1.855c-0.221-0.001-0.483-0.001-0.746-0.001-86.795 0-165.47 34.764-222.862 91.127l0.048-0.047c-5.815 5.945-13.919 9.632-22.884 9.632-17.673 0-32-14.327-32-32 0-9.223 3.902-17.535 10.146-23.375l0.018-0.017c68.777-67.593 163.164-109.321 267.297-109.321 0.345 0 0.691 0 1.036 0.001h2.027c105.326 0.329 200.561 43.264 269.425 112.465l58.575 58.535v-114.76c0-17.673 14.327-32 32-32s32 14.327 32 32v0 192c0 17.673-14.327 32-32 32v0z" />
<glyph unicode="&#xe098;" d="M704 768v-640h-384v640z" />
<glyph unicode="&#xe099;" d="M470.64 278.64c5.798-5.792 9.385-13.797 9.385-22.64s-3.587-16.848-9.385-22.64v0l-128-128c-5.792-5.798-13.797-9.385-22.64-9.385s-16.848 3.587-22.64 9.385v0l-128 128c-5.794 5.794-9.378 13.799-9.378 22.64 0 17.683 14.335 32.018 32.018 32.018 8.841 0 16.846-3.584 22.64-9.378v0l73.36-73.4v562.76c0 17.673 14.327 32 32 32s32-14.327 32-32v0-562.76l73.36 73.4c5.792 5.798 13.797 9.385 22.64 9.385s16.848-3.587 22.64-9.385v0zM854.64 662.64l-128 128c-5.792 5.798-13.797 9.385-22.64 9.385s-16.848-3.587-22.64-9.385v0l-128-128c-5.794-5.794-9.378-13.799-9.378-22.64 0-17.683 14.335-32.018 32.018-32.018 8.841 0 16.846 3.584 22.64 9.378l73.36 73.4v-562.76c0-17.673 14.327-32 32-32s32 14.327 32 32v0 562.76l73.36-73.4c5.794-5.794 13.799-9.378 22.64-9.378 17.683 0 32.018 14.335 32.018 32.018 0 8.841-3.584 16.846-9.378 22.64v0z" />
<glyph unicode="&#xe09a;" d="M896 768v-640c0-35.346-28.654-64-64-64v0h-640c-35.346 0-64 28.654-64 64v0 640c0 35.346 28.654 64 64 64v0h640c35.346 0 64-28.654 64-64v0z" />
<glyph unicode="&#xe09b;" d="M576 544v160c0 17.673 14.327 32 32 32s32-14.327 32-32v0-82.76l169.36 169.4c5.794 5.794 13.799 9.378 22.64 9.378 17.683 0 32.018-14.335 32.018-32.018 0-8.841-3.584-16.846-9.378-22.64v0l-169.4-169.36h82.76c17.673 0 32-14.327 32-32s-14.327-32-32-32v0h-160c-17.673 0-32 14.327-32 32v0zM416 384h-160c-17.673 0-32-14.327-32-32s14.327-32 32-32v0h82.76l-169.4-169.36c-5.794-5.794-9.378-13.799-9.378-22.64 0-17.683 14.335-32.018 32.018-32.018 8.841 0 16.846 3.584 22.64 9.378v0l169.36 169.4v-82.76c0-17.673 14.327-32 32-32s32 14.327 32 32v0 160c0 17.673-14.327 32-32 32v0zM685.24 320h82.76c17.673 0 32 14.327 32 32s-14.327 32-32 32v0h-160c-17.673 0-32-14.327-32-32v0-160c0-17.673 14.327-32 32-32s32 14.327 32 32v0 82.76l169.36-169.4c5.794-5.794 13.799-9.378 22.64-9.378 17.683 0 32.018 14.335 32.018 32.018 0 8.841-3.584 16.846-9.378 22.64v0zM416 736c-17.673 0-32-14.327-32-32v0-82.76l-169.36 169.4c-5.794 5.794-13.799 9.378-22.64 9.378-17.683 0-32.018-14.335-32.018-32.018 0-8.841 3.584-16.846 9.378-22.64l169.4-169.36h-82.76c-17.673 0-32-14.327-32-32s14.327-32 32-32v0h160c17.673 0 32 14.327 32 32v0 160c0 17.673-14.327 32-32 32v0z" />
<glyph unicode="&#xe09c;" d="M896 768v-640c0-35.346-28.654-64-64-64v0h-640c-35.346 0-64 28.654-64 64v0 640c0 35.346 28.654 64 64 64v0h640c35.346 0 64-28.654 64-64v0z" />
<glyph unicode="&#xe09d;" d="M361.36 681.36c-5.794 5.794-9.378 13.799-9.378 22.64 0 17.683 14.335 32.018 32.018 32.018 8.841 0 16.846-3.584 22.64-9.378v0l73.36-73.4v210.76c0 17.673 14.327 32 32 32s32-14.327 32-32v0-210.76l73.36 73.4c5.794 5.794 13.799 9.378 22.64 9.378 17.683 0 32.018-14.335 32.018-32.018 0-8.841-3.584-16.846-9.378-22.64v0l-128-128c-5.792-5.798-13.797-9.385-22.64-9.385s-16.848 3.587-22.64 9.385v0zM534.64 342.64c-5.792 5.798-13.797 9.385-22.64 9.385s-16.848-3.587-22.64-9.385v0l-128-128c-5.794-5.794-9.378-13.799-9.378-22.64 0-17.683 14.335-32.018 32.018-32.018 8.841 0 16.846 3.584 22.64 9.378l73.36 73.4v-210.76c0-17.673 14.327-32 32-32s32 14.327 32 32v0 210.76l73.36-73.4c5.794-5.794 13.799-9.378 22.64-9.378 17.683 0 32.018 14.335 32.018 32.018 0 8.841-3.584 16.846-9.378 22.64v0zM928 480h-210.76l73.4 73.36c5.794 5.794 9.378 13.799 9.378 22.64 0 17.683-14.335 32.018-32.018 32.018-8.841 0-16.846-3.584-22.64-9.378l-128-128c-5.798-5.792-9.385-13.797-9.385-22.64s3.587-16.848 9.385-22.64v0l128-128c5.794-5.794 13.799-9.378 22.64-9.378 17.683 0 32.018 14.335 32.018 32.018 0 8.841-3.584 16.846-9.378 22.64l-73.4 73.36h210.76c17.673 0 32 14.327 32 32s-14.327 32-32 32v0zM406.64 470.64l-128 128c-5.794 5.794-13.799 9.378-22.64 9.378-17.683 0-32.018-14.335-32.018-32.018 0-8.841 3.584-16.846 9.378-22.64v0l73.4-73.36h-210.76c-17.673 0-32-14.327-32-32s14.327-32 32-32v0h210.76l-73.4-73.36c-5.794-5.794-9.378-13.799-9.378-22.64 0-17.683 14.335-32.018 32.018-32.018 8.841 0 16.846 3.584 22.64 9.378l128 128c5.798 5.792 9.385 13.797 9.385 22.64s-3.587 16.848-9.385 22.64v0z" />
<glyph unicode="&#xe09e;" d="M896 768v-640c0-35.346-28.654-64-64-64v0h-640c-35.346 0-64 28.654-64 64v0 640c0 35.346 28.654 64 64 64v0h640c35.346 0 64-28.654 64-64v0z" />
<glyph unicode="&#xe09f;" d="M854.64 745.36l-201.4-201.36h114.76c17.673 0 32-14.327 32-32s-14.327-32-32-32v0h-192c-17.673 0-32 14.327-32 32v0 192c0 17.673 14.327 32 32 32s32-14.327 32-32v0-114.76l201.36 201.4c5.794 5.794 13.799 9.378 22.64 9.378 17.683 0 32.018-14.335 32.018-32.018 0-8.841-3.584-16.846-9.378-22.64v0zM448 416h-192c-17.673 0-32-14.327-32-32s14.327-32 32-32v0h114.76l-201.4-201.36c-5.794-5.794-9.378-13.799-9.378-22.64 0-17.683 14.335-32.018 32.018-32.018 8.841 0 16.846 3.584 22.64 9.378v0l201.36 201.4v-114.76c0-17.673 14.327-32 32-32s32 14.327 32 32v0 192c0 17.673-14.327 32-32 32v0z" />
<glyph unicode="&#xe0a0;" d="M832 640v-384h-640v384z" />
<glyph unicode="&#xe0a1;" d="M854.64 233.36l-128-128c-5.794-5.794-13.799-9.378-22.64-9.378-17.683 0-32.018 14.335-32.018 32.018 0 8.841 3.584 16.846 9.378 22.64l73.4 73.36h-562.76c-17.673 0-32 14.327-32 32s14.327 32 32 32v0h562.76l-73.4 73.36c-5.794 5.794-9.378 13.799-9.378 22.64 0 17.683 14.335 32.018 32.018 32.018 8.841 0 16.846-3.584 22.64-9.378l128-128c5.798-5.792 9.385-13.797 9.385-22.64s-3.587-16.848-9.385-22.64v0zM297.36 489.36c5.794-5.794 13.799-9.378 22.64-9.378 17.683 0 32.018 14.335 32.018 32.018 0 8.841-3.584 16.846-9.378 22.64l-73.4 73.36h562.76c17.673 0 32 14.327 32 32s-14.327 32-32 32v0h-562.76l73.4 73.36c5.794 5.794 9.378 13.799 9.378 22.64 0 17.683-14.335 32.018-32.018 32.018-8.841 0-16.846-3.584-22.64-9.378l-128-128c-5.798-5.792-9.385-13.797-9.385-22.64s3.587-16.848 9.385-22.64v0z" />
<glyph unicode="&#xe0a2;" d="M832 768v-640h-640v640z" />
<glyph unicode="&#xe0a3;" d="M864 768v-192c0-17.673-14.327-32-32-32s-32 14.327-32 32v0 114.76l-169.36-169.4c-5.794-5.794-13.799-9.378-22.64-9.378-17.683 0-32.018 14.335-32.018 32.018 0 8.841 3.584 16.846 9.378 22.64l169.4 169.36h-114.76c-17.673 0-32 14.327-32 32s14.327 32 32 32v0h192c17.673 0 32-14.327 32-32v0zM393.36 374.64l-169.36-169.4v114.76c0 17.673-14.327 32-32 32s-32-14.327-32-32v0-192c0-17.673 14.327-32 32-32v0h192c17.673 0 32 14.327 32 32s-14.327 32-32 32v0h-114.76l169.4 169.36c5.794 5.794 9.378 13.799 9.378 22.64 0 17.683-14.335 32.018-32.018 32.018-8.841 0-16.846-3.584-22.64-9.378v0zM832 352c-17.673 0-32-14.327-32-32v0-114.76l-169.36 169.4c-5.794 5.794-13.799 9.378-22.64 9.378-17.683 0-32.018-14.335-32.018-32.018 0-8.841 3.584-16.846 9.378-22.64l169.4-169.36h-114.76c-17.673 0-32-14.327-32-32s14.327-32 32-32v0h192c17.673 0 32 14.327 32 32v0 192c0 17.673-14.327 32-32 32v0zM269.24 736h114.76c17.673 0 32 14.327 32 32s-14.327 32-32 32v0h-192c-17.673 0-32-14.327-32-32v0-192c0-17.673 14.327-32 32-32s32 14.327 32 32v0 114.76l169.36-169.4c5.794-5.794 13.799-9.378 22.64-9.378 17.683 0 32.018 14.335 32.018 32.018 0 8.841-3.584 16.846-9.378 22.64v0z" />
<glyph unicode="&#xe0a4;" d="M928 448l-416-416-416 416 416 416z" />
<glyph unicode="&#xe0a5;" d="M361.36 713.36c-5.798 5.792-9.385 13.797-9.385 22.64s3.587 16.848 9.385 22.64v0l128 128c5.792 5.798 13.797 9.385 22.64 9.385s16.848-3.587 22.64-9.385v0l128-128c5.794-5.794 9.378-13.799 9.378-22.64 0-17.683-14.335-32.018-32.018-32.018-8.841 0-16.846 3.584-22.64 9.378v0l-73.36 73.4v-210.76c0-17.673-14.327-32-32-32s-32 14.327-32 32v0 210.76l-73.36-73.4c-5.792-5.798-13.797-9.385-22.64-9.385s-16.848 3.587-22.64 9.385v0zM617.36 182.64l-73.36-73.4v210.76c0 17.673-14.327 32-32 32s-32-14.327-32-32v0-210.76l-73.36 73.4c-5.794 5.794-13.799 9.378-22.64 9.378-17.683 0-32.018-14.335-32.018-32.018 0-8.841 3.584-16.846 9.378-22.64l128-128c5.792-5.798 13.797-9.385 22.64-9.385s16.848 3.587 22.64 9.385v0l128 128c5.794 5.794 9.378 13.799 9.378 22.64 0 17.683-14.335 32.018-32.018 32.018-8.841 0-16.846-3.584-22.64-9.378v0zM950.64 470.64l-128 128c-5.794 5.794-13.799 9.378-22.64 9.378-17.683 0-32.018-14.335-32.018-32.018 0-8.841 3.584-16.846 9.378-22.64l73.4-73.36h-210.76c-17.673 0-32-14.327-32-32s14.327-32 32-32v0h210.76l-73.4-73.36c-5.794-5.794-9.378-13.799-9.378-22.64 0-17.683 14.335-32.018 32.018-32.018 8.841 0 16.846 3.584 22.64 9.378l128 128c5.798 5.792 9.385 13.797 9.385 22.64s-3.587 16.848-9.385 22.64v0zM173.24 416h210.76c17.673 0 32 14.327 32 32s-14.327 32-32 32v0h-210.76l73.4 73.36c5.794 5.794 9.378 13.799 9.378 22.64 0 17.683-14.335 32.018-32.018 32.018-8.841 0-16.846-3.584-22.64-9.378v0l-128-128c-5.798-5.792-9.385-13.797-9.385-22.64s3.587-16.848 9.385-22.64v0l128-128c5.794-5.794 13.799-9.378 22.64-9.378 17.683 0 32.018 14.335 32.018 32.018 0 8.841-3.584 16.846-9.378 22.64v0z" />
<glyph unicode="&#xe0a6;" d="M896 768v-640c0-35.346-28.654-64-64-64v0h-640c-35.346 0-64 28.654-64 64v0 640c0 35.346 28.654 64 64 64v0h640c35.346 0 64-28.654 64-64v0z" />
<glyph unicode="&#xe0a7;" d="M864 768v-192c0-17.673-14.327-32-32-32s-32 14.327-32 32v0 114.76l-201.36-201.4c-5.794-5.794-13.799-9.378-22.64-9.378-17.683 0-32.018 14.335-32.018 32.018 0 8.841 3.584 16.846 9.378 22.64l201.4 201.36h-114.76c-17.673 0-32 14.327-32 32s14.327 32 32 32v0h192c17.673 0 32-14.327 32-32v0zM425.36 406.64l-201.36-201.4v114.76c0 17.673-14.327 32-32 32s-32-14.327-32-32v0-192c0-17.673 14.327-32 32-32v0h192c17.673 0 32 14.327 32 32s-14.327 32-32 32v0h-114.76l201.4 201.36c5.794 5.794 9.378 13.799 9.378 22.64 0 17.683-14.335 32.018-32.018 32.018-8.841 0-16.846-3.584-22.64-9.378v0z" />
<glyph unicode="&#xe0a8;" d="M896 736v-576c0-17.673-14.327-32-32-32v0h-704c-17.673 0-32 14.327-32 32v0 576c0 17.673 14.327 32 32 32v0h704c17.673 0 32-14.327 32-32v0z" />
<glyph unicode="&#xe0a9;" d="M864 800h-704c-35.346 0-64-28.654-64-64v0-576c0-35.346 28.654-64 64-64v0h704c35.346 0 64 28.654 64 64v0 576c0 35.346-28.654 64-64 64v0zM864 160h-704v576h704v-576zM736 576c0-17.673-14.327-32-32-32v0h-384c-17.673 0-32 14.327-32 32s14.327 32 32 32v0h384c17.673 0 32-14.327 32-32v0zM736 448c0-17.673-14.327-32-32-32v0h-384c-17.673 0-32 14.327-32 32s14.327 32 32 32v0h384c17.673 0 32-14.327 32-32v0zM736 320c0-17.673-14.327-32-32-32v0h-384c-17.673 0-32 14.327-32 32s14.327 32 32 32v0h384c17.673 0 32-14.327 32-32v0z" />
<glyph unicode="&#xe0aa;" d="M800 448c0-159.058-128.942-288-288-288s-288 128.942-288 288c0 159.058 128.942 288 288 288v0c159.058 0 288-128.942 288-288v0z" />
<glyph unicode="&#xe0ab;" d="M859.44 239.52c-5.69-9.389-15.853-15.567-27.458-15.567-6.112 0-11.824 1.714-16.682 4.687l0.14-0.080-271.44 162.92v-295.48c0-17.673-14.327-32-32-32s-32 14.327-32 32v0 295.48l-271.52-162.92c-4.766-2.972-10.552-4.734-16.751-4.734-17.673 0-32 14.327-32 32 0 11.713 6.293 21.956 15.683 27.533l0.148 0.081 274.24 164.56-274.24 164.56c-9.537 5.658-15.831 15.901-15.831 27.614 0 17.673 14.327 32 32 32 6.198 0 11.985-1.762 16.886-4.813l-0.136 0.079 271.52-162.92v295.48c0 17.673 14.327 32 32 32s32-14.327 32-32v0-295.48l271.52 162.92c4.766 2.972 10.552 4.734 16.751 4.734 17.673 0 32-14.327 32-32 0-11.713-6.293-21.956-15.683-27.533l-0.148-0.081-274.24-164.56 274.24-164.56c9.386-5.691 15.561-15.852 15.561-27.455 0-6.081-1.696-11.766-4.641-16.607l0.080 0.142z" />
<glyph unicode="&#xe0ac;" d="M896 448c0-212.077-171.923-384-384-384s-384 171.923-384 384c0 212.077 171.923 384 384 384v0c212.077 0 384-171.923 384-384v0z" />
<glyph unicode="&#xe0ad;" d="M512 864c-229.75 0-416-186.25-416-416s186.25-416 416-416v0c86.040 0 176.4 25.92 241.72 69.32 8.665 5.82 14.292 15.583 14.292 26.66 0 17.68-14.332 32.012-32.012 32.012-6.602 0-12.738-1.999-17.835-5.424l0.115 0.073c-54.28-36.16-133.44-58.64-206.28-58.64-194.404 0-352 157.596-352 352s157.596 352 352 352c194.404 0 352-157.596 352-352v0c0-105.8-43.52-128-80-128s-80 22.2-80 128v160c0 17.673-14.327 32-32 32s-32-14.327-32-32v0-17.040c-33.834 30.432-78.829 49.045-128.171 49.045-106.039 0-192-85.961-192-192s85.961-192 192-192c61.606 0 116.436 29.015 151.568 74.126l0.322 0.43c24-48 65.4-74.56 120.28-74.56 90.16 0 144 71.76 144 192-0.25 229.65-186.35 415.75-415.976 416h-0.024zM512 320c-70.692 0-128 57.308-128 128s57.308 128 128 128c70.692 0 128-57.308 128-128v0c0-70.692-57.308-128-128-128v0z" />
<glyph unicode="&#xe0ae;" d="M896 736v-576c0-17.673-14.327-32-32-32v0h-589.88c-0.003 0-0.006 0-0.010 0-11.586 0-21.734 6.158-27.35 15.379l-0.080 0.141-182.68 304.48 182.68 304.48c5.696 9.362 15.844 15.52 27.43 15.52 0.003 0 0.007 0 0.010 0h589.879c17.673 0 32-14.327 32-32v0z" />
<glyph unicode="&#xe0af;" d="M864 800h-589.88c-23.17-0.069-43.45-12.378-54.72-30.798l-0.16-0.282-182.68-304.44c-2.87-4.703-4.57-10.393-4.57-16.48s1.699-11.777 4.65-16.621l-0.080 0.141 182.68-304.44c11.43-18.702 31.71-31.011 54.87-31.080h589.89c35.346 0 64 28.654 64 64v0 576c0 35.346-28.654 64-64 64v0zM246.68 143.52l27.44 16.48zM864 160h-589.88l-172.8 288 172.8 288h589.88zM425.36 374.64l73.4 73.36-73.4 73.36c-5.794 5.794-9.378 13.799-9.378 22.64 0 17.683 14.335 32.018 32.018 32.018 8.841 0 16.846-3.584 22.64-9.378l73.36-73.4 73.36 73.4c5.794 5.794 13.799 9.378 22.64 9.378 17.683 0 32.018-14.335 32.018-32.018 0-8.841-3.584-16.846-9.378-22.64l-73.4-73.36 73.4-73.36c5.794-5.794 9.378-13.799 9.378-22.64 0-17.683-14.335-32.018-32.018-32.018-8.841 0-16.846 3.584-22.64 9.378l-73.36 73.4-73.36-73.4c-5.794-5.794-13.799-9.378-22.64-9.378-17.683 0-32.018 14.335-32.018 32.018 0 8.841 3.584 16.846 9.378 22.64v0z" />
<glyph unicode="&#xe0b0;" d="M896 640v-480c0-17.673-14.327-32-32-32v0h-704c-17.673 0-32 14.327-32 32v0 480c0 17.673 14.327 32 32 32v0h704c17.673 0 32-14.327 32-32v0z" />
<glyph unicode="&#xe0b1;" d="M864 704h-160c0 106.039-85.961 192-192 192s-192-85.961-192-192v0h-160c-35.346 0-64-28.654-64-64v0-480c0-35.346 28.654-64 64-64v0h704c35.346 0 64 28.654 64 64v0 480c0 35.346-28.654 64-64 64v0zM512 832c70.692 0 128-57.308 128-128v0h-256c0 70.692 57.308 128 128 128v0zM864 160h-704v480h160v-64c0-17.673 14.327-32 32-32s32 14.327 32 32v0 64h256v-64c0-17.673 14.327-32 32-32s32 14.327 32 32v0 64h160z" />
<glyph unicode="&#xe0b2;" d="M826.52 581.48l-133.52-133.48-181 181 133.48 133.52c23.166 23.166 55.17 37.495 90.52 37.495 70.701 0 128.015-57.314 128.015-128.015 0-35.35-14.329-67.354-37.495-90.52v0zM197.48 314.52c-23.166-23.166-37.495-55.17-37.495-90.52 0-70.701 57.314-128.015 128.015-128.015 35.35 0 67.354 14.329 90.52 37.495v0l133.48 133.52-181 181zM331 448l181 181-133.48 133.52c-23.166 23.166-55.17 37.495-90.52 37.495-70.701 0-128.015-57.314-128.015-128.015 0-35.35 14.329-67.354 37.495-90.52v0zM693 448l-181-181 133.48-133.52c23.166-23.166 55.17-37.495 90.52-37.495 70.701 0 128.015 57.314 128.015 128.015 0 35.35-14.329 67.354-37.495 90.52v0z" />
<glyph unicode="&#xe0b3;" d="M738.28 448l110.84 110.88c30.136 29.135 48.846 69.926 48.846 115.086 0 88.366-71.634 160-160 160-45.16 0-85.951-18.71-115.043-48.801l-0.043-0.045-110.88-110.84-110.88 110.84c-29.135 30.136-69.926 48.846-115.086 48.846-88.366 0-160-71.634-160-160 0-45.16 18.71-85.951 48.801-115.043l0.045-0.043 110.84-110.88-110.84-110.88c-30.136-29.135-48.846-69.926-48.846-115.086 0-88.366 71.634-160 160-160 45.16 0 85.951 18.71 115.043 48.801l0.043 0.045 110.88 110.84 110.88-110.84c29.135-30.136 69.926-48.846 115.086-48.846 88.366 0 160 71.634 160 160 0 45.16-18.71 85.951-48.801 115.043l-0.045 0.043zM668 740c17.403 17.403 41.444 28.167 68 28.167 53.111 0 96.167-43.055 96.167-96.167 0-26.556-10.764-50.597-28.167-68l-110.88-110.88-135.88 135.88zM647.64 448l-135.64-135.76-135.76 135.76 135.76 135.76zM220 604v0c-17.403 17.403-28.167 41.444-28.167 68 0 53.111 43.055 96.167 96.167 96.167 26.556 0 50.597-10.764 68-28.167l110.88-110.88-135.88-135.88zM356 156c-17.403-17.403-41.444-28.167-68-28.167-53.111 0-96.167 43.055-96.167 96.167 0 26.556 10.764 50.597 28.167 68l110.88 110.88 135.76-135.76zM804 156c-17.384-17.443-41.432-28.236-68-28.236s-50.616 10.793-67.997 28.233l-110.883 110.883 135.76 135.76 111.12-110.64c17.443-17.384 28.236-41.432 28.236-68s-10.793-50.616-28.233-67.997l-0.003-0.003zM464 448c0 26.51 21.49 48 48 48s48-21.49 48-48c0-26.51-21.49-48-48-48v0c-26.51 0-48 21.49-48 48v0z" />
<glyph unicode="&#xe0b4;" d="M928 576h-832l416 256z" />
<glyph unicode="&#xe0b5;" d="M96 544h96v-256h-64c-17.673 0-32-14.327-32-32s14.327-32 32-32v0h768c17.673 0 32 14.327 32 32s-14.327 32-32 32v0h-64v256h96c17.659 0.018 31.968 14.338 31.968 32 0 11.458-6.022 21.509-15.073 27.162l-0.135 0.078-416 256c-4.768 2.976-10.558 4.74-16.76 4.74s-11.992-1.764-16.895-4.819l0.135 0.079-416-256c-9.186-5.731-15.208-15.782-15.208-27.24 0-17.662 14.308-31.982 31.966-32h0.002zM256 544h128v-256h-128zM576 544v-256h-128v256zM768 288h-128v256h128zM512 794.44l302.96-186.44h-605.92zM992 128c0-17.673-14.327-32-32-32v0h-896c-17.673 0-32 14.327-32 32s14.327 32 32 32v0h896c17.673 0 32-14.327 32-32v0z" />
<glyph unicode="&#xe0b6;" d="M384 704v-512c0-17.673-14.327-32-32-32v0h-96c-17.673 0-32 14.327-32 32v0 512c0 17.673 14.327 32 32 32v0h96c17.673 0 32-14.327 32-32v0zM768 736h-96c-17.673 0-32-14.327-32-32v0-512c0-17.673 14.327-32 32-32v0h96c17.673 0 32 14.327 32 32v0 512c0 17.673-14.327 32-32 32v0z" />
<glyph unicode="&#xe0b7;" d="M992 480h-32v128c0 35.346-28.654 64-64 64v0h-64v32c0 35.346-28.654 64-64 64v0h-96c-35.346 0-64-28.654-64-64v0-224h-192v224c0 35.346-28.654 64-64 64v0h-96c-35.346 0-64-28.654-64-64v0-32h-64c-35.346 0-64-28.654-64-64v0-128h-32c-17.673 0-32-14.327-32-32s14.327-32 32-32v0h32v-128c0-35.346 28.654-64 64-64v0h64v-32c0-35.346 28.654-64 64-64v0h96c35.346 0 64 28.654 64 64v0 224h192v-224c0-35.346 28.654-64 64-64v0h96c35.346 0 64 28.654 64 64v0 32h64c35.346 0 64 28.654 64 64v0 128h32c17.673 0 32 14.327 32 32s-14.327 32-32 32v0zM128 288v320h64v-320zM352 192h-96v512h96v-512zM768 192h-96v512h96v-447.32c0-0.24 0-0.44 0-0.68s0-0.48 0-0.68v-63.32zM896 288h-64v320h64z" />
<glyph unicode="&#xe0b8;" d="M896 768v-640h-768v640z" />
<glyph unicode="&#xe0b9;" d="M928 768v-160c0-17.673-14.327-32-32-32s-32 14.327-32 32v0 128h-128c-17.673 0-32 14.327-32 32s14.327 32 32 32v0h160c17.673 0 32-14.327 32-32v0zM288 160h-128v128c0 17.673-14.327 32-32 32s-32-14.327-32-32v0-160c0-17.673 14.327-32 32-32v0h160c17.673 0 32 14.327 32 32s-14.327 32-32 32v0zM896 320c-17.673 0-32-14.327-32-32v0-128h-128c-17.673 0-32-14.327-32-32s14.327-32 32-32v0h160c17.673 0 32 14.327 32 32v0 160c0 17.673-14.327 32-32 32v0zM128 576c17.673 0 32 14.327 32 32v0 128h128c17.673 0 32 14.327 32 32s-14.327 32-32 32v0h-160c-17.673 0-32-14.327-32-32v0-160c0-17.673 14.327-32 32-32v0zM320 640c-17.673 0-32-14.327-32-32v0-320c0-17.673 14.327-32 32-32s32 14.327 32 32v0 320c0 17.673-14.327 32-32 32v0zM736 288v320c0 17.673-14.327 32-32 32s-32-14.327-32-32v0-320c0-17.673 14.327-32 32-32s32 14.327 32 32v0zM576 640c-17.673 0-32-14.327-32-32v0-320c0-17.673 14.327-32 32-32s32 14.327 32 32v0 320c0 17.673-14.327 32-32 32v0zM448 640c-17.673 0-32-14.327-32-32v0-320c0-17.673 14.327-32 32-32s32 14.327 32 32v0 320c0 17.673-14.327 32-32 32v0z" />
<glyph unicode="&#xe0ba;" d="M864 640v-384c0-35.346-28.654-64-64-64v0h-672c-35.346 0-64 28.654-64 64v0 384c0 35.346 28.654 64 64 64v0h672c35.346 0 64-28.654 64-64v0z" />
<glyph unicode="&#xe0bb;" d="M800 736h-672c-53.019 0-96-42.981-96-96v0-384c0-53.019 42.981-96 96-96v0h672c53.019 0 96 42.981 96 96v0 384c0 53.019-42.981 96-96 96v0zM832 256c0-17.673-14.327-32-32-32v0h-672c-17.673 0-32 14.327-32 32v0 384c0 17.673 14.327 32 32 32v0h672c17.673 0 32-14.327 32-32v0zM1024 576v-256c0-17.673-14.327-32-32-32s-32 14.327-32 32v0 256c0 17.673 14.327 32 32 32s32-14.327 32-32v0zM555.24 464.84c3.004-4.785 4.786-10.601 4.786-16.834 0-5.222-1.251-10.153-3.47-14.507l0.084 0.182-64-128c-5.374-10.579-16.175-17.7-28.64-17.7-17.684 0-32.020 14.336-32.020 32.020 0 5.22 1.249 10.148 3.464 14.502l-0.084-0.182 40.88 81.68h-76.24c-0.007 0-0.015 0-0.023 0-17.673 0-32 14.327-32 32 0 5.22 1.25 10.148 3.467 14.502l-0.084-0.182 64 128c5.374 10.579 16.175 17.7 28.64 17.7 17.684 0 32.020-14.336 32.020-32.020 0-5.22-1.249-10.148-3.464-14.502l0.084 0.182-40.88-81.68h76.24c0.009 0 0.019 0 0.029 0 11.438 0 21.474-6.001 27.132-15.026l0.078-0.134z" />
<glyph unicode="&#xe0bc;" d="M768 736v-672c0-35.346-28.654-64-64-64v0h-384c-35.346 0-64 28.654-64 64v0 672c0 35.346 28.654 64 64 64v0h384c35.346 0 64-28.654 64-64v0z" />
<glyph unicode="&#xe0bd;" d="M603.24 432.84c3.004-4.785 4.786-10.601 4.786-16.834 0-5.222-1.251-10.153-3.47-14.507l0.084 0.182-64-128c-5.374-10.579-16.175-17.7-28.64-17.7-17.684 0-32.020 14.336-32.020 32.020 0 5.22 1.249 10.148 3.464 14.502l-0.084-0.182 40.88 81.68h-76.24c-0.007 0-0.015 0-0.023 0-17.673 0-32 14.327-32 32 0 5.22 1.25 10.148 3.467 14.502l-0.084-0.182 64 128c5.374 10.579 16.175 17.7 28.64 17.7 17.684 0 32.020-14.336 32.020-32.020 0-5.22-1.249-10.148-3.464-14.502l0.084 0.182-40.88-81.68h76.24c0.009 0 0.019 0 0.029 0 11.438 0 21.474-6.001 27.132-15.026l0.078-0.134zM384 896h256c17.673 0 32 14.327 32 32s-14.327 32-32 32v0h-256c-17.673 0-32-14.327-32-32s14.327-32 32-32v0zM800 736v-672c0-53.019-42.981-96-96-96v0h-384c-53.019 0-96 42.981-96 96v0 672c0 53.019 42.981 96 96 96v0h384c53.019 0 96-42.981 96-96v0zM736 736c0 17.673-14.327 32-32 32v0h-384c-17.673 0-32-14.327-32-32v0-672c0-17.673 14.327-32 32-32v0h384c17.673 0 32 14.327 32 32v0z" />
<glyph unicode="&#xe0be;" d="M864 640v-384c0-35.346-28.654-64-64-64v0h-672c-35.346 0-64 28.654-64 64v0 384c0 35.346 28.654 64 64 64v0h672c35.346 0 64-28.654 64-64v0z" />
<glyph unicode="&#xe0bf;" d="M800 736h-672c-53.019 0-96-42.981-96-96v0-384c0-53.019 42.981-96 96-96v0h672c53.019 0 96 42.981 96 96v0 384c0 53.019-42.981 96-96 96v0zM832 256c0-17.673-14.327-32-32-32v0h-672c-17.673 0-32 14.327-32 32v0 384c0 17.673 14.327 32 32 32v0h672c17.673 0 32-14.327 32-32v0zM1024 576v-256c0-17.673-14.327-32-32-32s-32 14.327-32 32v0 256c0 17.673 14.327 32 32 32s32-14.327 32-32v0z" />
<glyph unicode="&#xe0c0;" d="M864 640v-384c0-35.346-28.654-64-64-64v0h-672c-35.346 0-64 28.654-64 64v0 384c0 35.346 28.654 64 64 64v0h672c35.346 0 64-28.654 64-64v0z" />
<glyph unicode="&#xe0c1;" d="M800 736h-672c-53.019 0-96-42.981-96-96v0-384c0-53.019 42.981-96 96-96v0h672c53.019 0 96 42.981 96 96v0 384c0 53.019-42.981 96-96 96v0zM832 256c0-17.673-14.327-32-32-32v0h-672c-17.673 0-32 14.327-32 32v0 384c0 17.673 14.327 32 32 32v0h672c17.673 0 32-14.327 32-32v0zM736 576v-256c0-17.673-14.327-32-32-32s-32 14.327-32 32v0 256c0 17.673 14.327 32 32 32s32-14.327 32-32v0zM576 576v-256c0-17.673-14.327-32-32-32s-32 14.327-32 32v0 256c0 17.673 14.327 32 32 32s32-14.327 32-32v0zM416 576v-256c0-17.673-14.327-32-32-32s-32 14.327-32 32v0 256c0 17.673 14.327 32 32 32s32-14.327 32-32v0zM256 576v-256c0-17.673-14.327-32-32-32s-32 14.327-32 32v0 256c0 17.673 14.327 32 32 32s32-14.327 32-32v0zM1024 576v-256c0-17.673-14.327-32-32-32s-32 14.327-32 32v0 256c0 17.673 14.327 32 32 32s32-14.327 32-32v0z" />
<glyph unicode="&#xe0c2;" d="M864 640v-384c0-35.346-28.654-64-64-64v0h-672c-35.346 0-64 28.654-64 64v0 384c0 35.346 28.654 64 64 64v0h672c35.346 0 64-28.654 64-64v0z" />
<glyph unicode="&#xe0c3;" d="M800 736h-672c-53.019 0-96-42.981-96-96v0-384c0-53.019 42.981-96 96-96v0h672c53.019 0 96 42.981 96 96v0 384c0 53.019-42.981 96-96 96v0zM832 256c0-17.673-14.327-32-32-32v0h-672c-17.673 0-32 14.327-32 32v0 384c0 17.673 14.327 32 32 32v0h672c17.673 0 32-14.327 32-32v0zM576 576v-256c0-17.673-14.327-32-32-32s-32 14.327-32 32v0 256c0 17.673 14.327 32 32 32s32-14.327 32-32v0zM416 576v-256c0-17.673-14.327-32-32-32s-32 14.327-32 32v0 256c0 17.673 14.327 32 32 32s32-14.327 32-32v0zM256 576v-256c0-17.673-14.327-32-32-32s-32 14.327-32 32v0 256c0 17.673 14.327 32 32 32s32-14.327 32-32v0zM1024 576v-256c0-17.673-14.327-32-32-32s-32 14.327-32 32v0 256c0 17.673 14.327 32 32 32s32-14.327 32-32v0z" />
<glyph unicode="&#xe0c4;" d="M864 640v-384c0-35.346-28.654-64-64-64v0h-672c-35.346 0-64 28.654-64 64v0 384c0 35.346 28.654 64 64 64v0h672c35.346 0 64-28.654 64-64v0z" />
<glyph unicode="&#xe0c5;" d="M800 736h-672c-53.019 0-96-42.981-96-96v0-384c0-53.019 42.981-96 96-96v0h672c53.019 0 96 42.981 96 96v0 384c0 53.019-42.981 96-96 96v0zM832 256c0-17.673-14.327-32-32-32v0h-672c-17.673 0-32 14.327-32 32v0 384c0 17.673 14.327 32 32 32v0h672c17.673 0 32-14.327 32-32v0zM256 576v-256c0-17.673-14.327-32-32-32s-32 14.327-32 32v0 256c0 17.673 14.327 32 32 32s32-14.327 32-32v0zM1024 576v-256c0-17.673-14.327-32-32-32s-32 14.327-32 32v0 256c0 17.673 14.327 32 32 32s32-14.327 32-32v0z" />
<glyph unicode="&#xe0c6;" d="M864 640v-384c0-35.346-28.654-64-64-64v0h-672c-35.346 0-64 28.654-64 64v0 384c0 35.346 28.654 64 64 64v0h672c35.346 0 64-28.654 64-64v0z" />
<glyph unicode="&#xe0c7;" d="M800 736h-672c-53.019 0-96-42.981-96-96v0-384c0-53.019 42.981-96 96-96v0h672c53.019 0 96 42.981 96 96v0 384c0 53.019-42.981 96-96 96v0zM832 256c0-17.673-14.327-32-32-32v0h-672c-17.673 0-32 14.327-32 32v0 384c0 17.673 14.327 32 32 32v0h672c17.673 0 32-14.327 32-32v0zM416 576v-256c0-17.673-14.327-32-32-32s-32 14.327-32 32v0 256c0 17.673 14.327 32 32 32s32-14.327 32-32v0zM256 576v-256c0-17.673-14.327-32-32-32s-32 14.327-32 32v0 256c0 17.673 14.327 32 32 32s32-14.327 32-32v0zM1024 576v-256c0-17.673-14.327-32-32-32s-32 14.327-32 32v0 256c0 17.673 14.327 32 32 32s32-14.327 32-32v0z" />
<glyph unicode="&#xe0c8;" d="M864 640v-384c0-35.346-28.654-64-64-64v0h-672c-35.346 0-64 28.654-64 64v0 384c0 35.346 28.654 64 64 64v0h672c35.346 0 64-28.654 64-64v0z" />
<glyph unicode="&#xe0c9;" d="M800 736h-672c-53.019 0-96-42.981-96-96v0-384c0-53.019 42.981-96 96-96v0h672c53.019 0 96 42.981 96 96v0 384c0 53.019-42.981 96-96 96v0zM832 256c0-17.673-14.327-32-32-32v0h-672c-17.673 0-32 14.327-32 32v0 384c0 17.673 14.327 32 32 32v0h672c17.673 0 32-14.327 32-32v0zM1024 576v-256c0-17.673-14.327-32-32-32s-32 14.327-32 32v0 256c0 17.673 14.327 32 32 32s32-14.327 32-32v0zM432 464v112c0 17.673 14.327 32 32 32s32-14.327 32-32v0-112c0-17.673-14.327-32-32-32s-32 14.327-32 32v0zM512 336c0-26.51-21.49-48-48-48s-48 21.49-48 48c0 26.51 21.49 48 48 48v0c26.51 0 48-21.49 48-48v0z" />
<glyph unicode="&#xe0ca;" d="M768 736v-672c0-35.346-28.654-64-64-64v0h-384c-35.346 0-64 28.654-64 64v0 672c0 35.346 28.654 64 64 64v0h384c35.346 0 64-28.654 64-64v0z" />
<glyph unicode="&#xe0cb;" d="M352 928c0 17.673 14.327 32 32 32v0h256c17.673 0 32-14.327 32-32s-14.327-32-32-32v0h-256c-17.673 0-32 14.327-32 32v0zM800 736v-672c0-53.019-42.981-96-96-96v0h-384c-53.019 0-96 42.981-96 96v0 672c0 53.019 42.981 96 96 96v0h384c53.019 0 96-42.981 96-96v0zM736 736c0 17.673-14.327 32-32 32v0h-384c-17.673 0-32-14.327-32-32v0-672c0-17.673 14.327-32 32-32v0h384c17.673 0 32 14.327 32 32v0zM512 384c17.673 0 32 14.327 32 32v0 160c0 17.673-14.327 32-32 32s-32-14.327-32-32v0-160c0-17.673 14.327-32 32-32v0zM512 320c-26.51 0-48-21.49-48-48s21.49-48 48-48c26.51 0 48 21.49 48 48v0c0 26.51-21.49 48-48 48v0z" />
<glyph unicode="&#xe0cc;" d="M992 512v-224h-544v352h416c70.692 0 128-57.308 128-128v0z" />
<glyph unicode="&#xe0cd;" d="M864 672h-736v96c0 17.673-14.327 32-32 32s-32-14.327-32-32v0-640c0-17.673 14.327-32 32-32s32 14.327 32 32v0 128h832v-128c0-17.673 14.327-32 32-32s32 14.327 32 32v0 384c0 88.366-71.634 160-160 160v0zM128 608h288v-288h-288zM480 320v288h384c53.019 0 96-42.981 96-96v0-192z" />
<glyph unicode="&#xe0ce;" d="M832 192h-640c-17.59 0.109-31.808 14.394-31.808 31.999 0 5.891 1.592 11.411 4.369 16.152l-0.082-0.151c26.36 45.6 59.52 160.76 59.52 304 0 159.058 128.942 288 288 288s288-128.942 288-288v0c0-143.28 33.2-258.4 59.6-304 2.695-4.59 4.287-10.109 4.287-16 0-17.633-14.263-31.936-31.881-32h-0.006z" />
<glyph unicode="&#xe0cf;" d="M887.2 256.24c-22.2 38.24-55.2 146.44-55.2 287.76 0 176.731-143.269 320-320 320s-320-143.269-320-320v0c0-141.36-33.040-249.52-55.24-287.76-5.477-9.237-8.714-20.36-8.714-32.24 0-35.33 28.627-63.974 63.951-64h163.243c15.422-73.536 79.735-127.964 156.76-127.964s141.338 54.428 156.577 126.922l0.183 1.042h163.24c35.309 0.049 63.914 28.684 63.914 64 0 11.88-3.237 23.003-8.876 32.537l0.163-0.297zM512 96c-41.537 0.013-76.906 26.404-90.269 63.332l-0.211 0.668h180.96c-13.574-37.596-48.943-63.987-90.478-64h-0.002zM192 224c30.8 52.96 64 175.68 64 320 0 141.385 114.615 256 256 256s256-114.615 256-256v0c0-144.2 33.12-266.92 64-320z" />
<glyph unicode="&#xe0d0;" d="M832 192h-640c-17.59 0.109-31.808 14.394-31.808 31.999 0 5.891 1.592 11.411 4.369 16.152l-0.082-0.151c26.36 45.6 59.52 160.76 59.52 304 0 159.058 128.942 288 288 288s288-128.942 288-288v0c0-143.28 33.2-258.4 59.6-304 2.695-4.59 4.287-10.109 4.287-16 0-17.633-14.263-31.936-31.881-32h-0.006z" />
<glyph unicode="&#xe0d1;" d="M672 64c0-17.673-14.327-32-32-32v0h-256c-17.673 0-32 14.327-32 32s14.327 32 32 32v0h256c17.673 0 32-14.327 32-32v0zM887.4 192c-11.077-19.249-31.53-32.002-54.963-32.002-0.154 0-0.307 0.001-0.461 0.002h-639.976c-35.309 0.049-63.914 28.684-63.914 64 0 11.88 3.237 23.003 8.876 32.537l-0.163-0.297c22.2 38.24 55.2 146.4 55.2 287.76 0 176.731 143.269 320 320 320s320-143.269 320-320v0c0-141.32 33.040-249.52 55.24-287.76 5.513-9.222 8.773-20.341 8.773-32.222 0-11.798-3.214-22.845-8.815-32.313l0.162 0.295zM832 224c-30.92 53.080-64 175.8-64 320 0 141.385-114.615 256-256 256s-256-114.615-256-256v0c0-144.24-33.12-266.96-64-320z" />
<glyph unicode="&#xe0d2;" d="M832 192h-640c-17.59 0.109-31.808 14.394-31.808 31.999 0 5.891 1.592 11.411 4.369 16.152l-0.082-0.151c26.36 45.6 59.52 160.76 59.52 304 0 159.058 128.942 288 288 288s288-128.942 288-288v0c0-143.28 33.2-258.4 59.6-304 2.695-4.59 4.287-10.109 4.287-16 0-17.633-14.263-31.936-31.881-32h-0.006z" />
<glyph unicode="&#xe0d3;" d="M215.68 821.52c-5.889 6.617-14.429 10.764-23.938 10.764-17.673 0-32-14.327-32-32 0-8.434 3.263-16.106 8.595-21.823l-0.017 0.019 66.96-73.68c-27.204-45.92-43.28-101.215-43.28-160.263 0-0.189 0-0.377 0-0.566v0.029c0-141.36-33.040-249.52-55.24-287.76-5.477-9.237-8.714-20.36-8.714-32.24 0-35.33 28.627-63.974 63.951-64h538.563l77.76-85.52c5.889-6.617 14.429-10.764 23.938-10.764 17.673 0 32 14.327 32 32 0 8.434-3.263 16.106-8.595 21.823l0.017-0.019zM192 224c30.8 52.96 64 175.68 64 320 0 0.111 0 0.242 0 0.373 0 40.034 9.24 77.911 25.704 111.612l-0.664-1.505 391.32-430.48zM672 64c0-17.673-14.327-32-32-32v0h-256c-17.673 0-32 14.327-32 32s14.327 32 32 32v0h256c17.673 0 32-14.327 32-32v0zM856 243c-3.475-1.388-7.503-2.195-11.718-2.2h-0.002c-13.456 0.014-24.967 8.332-29.684 20.104l-0.076 0.216c-29.12 74.12-46.52 179.88-46.52 282.88 0 0.022 0 0.048 0 0.073 0 141.385-114.615 256-256 256-46.432 0-89.976-12.361-127.522-33.972l1.242 0.659c-4.406-2.433-9.658-3.865-15.245-3.865-17.673 0-32 14.327-32 32 0 11.637 6.212 21.824 15.501 27.424l0.144 0.080c45.387 26.201 99.828 41.659 157.88 41.659 176.731 0 320-143.269 320-320 0-0.021 0-0.041 0-0.062v0.003c0-141.4 32.2-234.36 42.080-259.52 1.402-3.467 2.215-7.487 2.215-11.698 0-13.46-8.31-24.979-20.079-29.706l-0.215-0.076z" />
<glyph unicode="&#xe0d4;" d="M832 192h-640c-17.59 0.109-31.808 14.394-31.808 31.999 0 5.891 1.592 11.411 4.369 16.152l-0.082-0.151c26.36 45.6 59.52 160.76 59.52 304 0 159.058 128.942 288 288 288s288-128.942 288-288v0c0-143.28 33.2-258.4 59.6-304 2.695-4.59 4.287-10.109 4.287-16 0-17.633-14.263-31.936-31.881-32h-0.006z" />
<glyph unicode="&#xe0d5;" d="M215.68 821.52c-5.889 6.617-14.429 10.764-23.938 10.764-17.673 0-32-14.327-32-32 0-8.434 3.263-16.106 8.595-21.823l-0.017 0.019 66.96-73.68c-27.204-45.92-43.28-101.215-43.28-160.263 0-0.189 0-0.377 0-0.566v0.029c0-141.36-33.040-249.52-55.24-287.76-5.477-9.237-8.714-20.36-8.714-32.24 0-35.33 28.627-63.974 63.951-64h163.203c15.344-73.633 79.704-128.16 156.8-128.16s141.456 54.527 156.618 127.12l0.182 1.040h61.76l77.76-85.52c5.889-6.617 14.429-10.764 23.938-10.764 17.673 0 32 14.327 32 32 0 8.434-3.263 16.106-8.595 21.823l0.017-0.019zM512 96c-41.537 0.013-76.906 26.404-90.269 63.332l-0.211 0.668h180.96c-13.574-37.596-48.943-63.987-90.478-64h-0.002zM192 224c30.8 52.96 64 175.68 64 320 0 0.111 0 0.242 0 0.373 0 40.034 9.24 77.911 25.704 111.612l-0.664-1.505 391.32-430.48zM856 242.92c-3.475-1.388-7.503-2.195-11.718-2.2h-0.002c-13.456 0.014-24.967 8.332-29.684 20.104l-0.076 0.216c-29.12 74.2-46.52 179.96-46.52 282.96 0 0.022 0 0.048 0 0.073 0 141.385-114.615 256-256 256-46.432 0-89.976-12.361-127.522-33.972l1.242 0.659c-4.406-2.433-9.658-3.865-15.245-3.865-17.673 0-32 14.327-32 32 0 11.637 6.212 21.824 15.501 27.424l0.144 0.080c45.387 26.201 99.828 41.659 157.88 41.659 176.731 0 320-143.269 320-320 0-0.021 0-0.041 0-0.062v0.003c0-141.4 32.2-234.36 42.080-259.52 1.402-3.467 2.215-7.487 2.215-11.698 0-13.46-8.31-24.979-20.079-29.706l-0.215-0.076z" />
<glyph unicode="&#xe0d6;" d="M992 320c0-88.366-71.634-160-160-160s-160 71.634-160 160c0 88.366 71.634 160 160 160v0c88.366 0 160-71.634 160-160v0zM192 480c-88.366 0-160-71.634-160-160s71.634-160 160-160c88.366 0 160 71.634 160 160v0c0 88.366-71.634 160-160 160v0z" />
<glyph unicode="&#xe0d7;" d="M832 512c-0.025 0-0.054 0-0.084 0-24.307 0-47.554-4.535-68.943-12.804l1.306 0.444-100.56 172.36h104.28c17.673 0 32-14.327 32-32v0c0-17.673 14.327-32 32-32s32 14.327 32 32v0c0 53.019-42.981 96-96 96v0h-160c-17.642-0.041-31.927-14.352-31.927-32 0-5.891 1.592-11.41 4.369-16.151l-0.082 0.151 46.6-80h-229.92l-65.4 112c-5.624 9.612-15.886 15.972-27.636 16h-112.004c-17.673 0-32-14.327-32-32s14.327-32 32-32v0h93.64l54.84-94.040-62.84-86.2c-25.099 12.834-54.75 20.355-86.158 20.355-106.326 0-192.52-86.194-192.52-192.52s86.194-192.52 192.52-192.52c106.326 0 192.52 86.194 192.52 192.52 0 52.309-20.862 99.746-54.72 134.444l0.038-0.039 46.36 63.6 124.68-213.6c5.362-10.598 16.17-17.737 28.646-17.737 17.673 0 32 14.327 32 32 0 6.61-2.004 12.752-5.438 17.852l0.072-0.114-121.28 208h229.92l44.76-76.68c-42.221-35.461-68.871-88.278-68.871-147.32 0-106.039 85.961-192 192-192s192 85.961 192 192c0 106.039-85.961 192-192 192-0.059 0-0.119 0-0.178 0h0.009zM320 320c0-0.011 0-0.023 0-0.036 0-70.692-57.308-128-128-128s-128 57.308-128 128c0 70.692 57.308 128 128 128 16.981 0 33.19-3.307 48.018-9.312l-0.858 0.307-73-100c-4.266-5.387-6.844-12.282-6.844-19.778 0-17.673 14.327-32 32-32 10.993 0 20.692 5.544 26.453 13.988l0.071 0.11 73 100c18.148-21.869 29.16-50.228 29.16-81.158 0-0.043 0-0.085 0-0.128v0.006zM832 192c-70.65 0.056-127.902 57.342-127.902 128 0 35.531 14.477 67.68 37.854 90.872l0.008 0.008 62.4-106.88c5.362-10.598 16.17-17.737 28.646-17.737 17.673 0 32 14.327 32 32 0 6.61-2.004 12.752-5.438 17.852l0.072-0.114-62.44 107.16c10.447 3.072 22.45 4.84 34.866 4.84 70.692 0 128-57.308 128-128s-57.308-128-128-128c-0.023 0-0.046 0-0.069 0h0.004z" />
<glyph unicode="&#xe0da;" d="M768 640l-256-192v384zM512 64l256 192-256 192z" />
<glyph unicode="&#xe0db;" d="M787.2 281.6l-221.88 166.4 221.88 166.4c7.807 5.9 12.8 15.167 12.8 25.6s-4.993 19.7-12.72 25.542l-0.080 0.058-256 192c-5.281 3.996-11.96 6.4-19.2 6.4-17.673 0-32-14.327-32-32v0-320l-204.8 153.6c-5.281 3.996-11.96 6.4-19.2 6.4-17.673 0-32-14.327-32-32 0-10.433 4.993-19.7 12.72-25.542l0.080-0.058 221.88-166.4-221.88-166.4c-7.807-5.9-12.8-15.167-12.8-25.6 0-17.673 14.327-32 32-32 7.24 0 13.919 2.404 19.28 6.458l-0.080-0.058 204.8 153.6v-320c0-17.673 14.327-32 32-32 7.24 0 13.919 2.404 19.28 6.458l-0.080-0.058 256 192c7.807 5.9 12.8 15.167 12.8 25.6s-4.993 19.7-12.72 25.542l-0.080 0.058zM544 768l170.68-128-170.68-128zM544 128v256l170.68-128z" />
<glyph unicode="&#xe0dc;" d="M768 640l-256-192v384zM512 64l256 192-256 192z" />
<glyph unicode="&#xe0dd;" d="M787.2 281.6l-221.88 166.4 221.88 166.4c7.807 5.9 12.8 15.167 12.8 25.6s-4.993 19.7-12.72 25.542l-0.080 0.058-256 192c-5.281 3.996-11.96 6.4-19.2 6.4-17.673 0-32-14.327-32-32v0-320l-204.8 153.6c-5.281 3.996-11.96 6.4-19.2 6.4-17.673 0-32-14.327-32-32 0-10.433 4.993-19.7 12.72-25.542l0.080-0.058 221.88-166.4-221.88-166.4c-7.807-5.9-12.8-15.167-12.8-25.6 0-17.673 14.327-32 32-32 7.24 0 13.919 2.404 19.28 6.458l-0.080-0.058 204.8 153.6v-320c0-17.673 14.327-32 32-32 7.24 0 13.919 2.404 19.28 6.458l-0.080-0.058 256 192c7.807 5.9 12.8 15.167 12.8 25.6s-4.993 19.7-12.72 25.542l-0.080 0.058zM544 768l170.68-128-170.68-128zM544 128v256l170.68-128zM240 400c-26.51 0-48 21.49-48 48s21.49 48 48 48c26.51 0 48-21.49 48-48v0c0-26.51-21.49-48-48-48v0zM864 448c0-26.51-21.49-48-48-48s-48 21.49-48 48c0 26.51 21.49 48 48 48v0c26.51 0 48-21.49 48-48v0z" />
<glyph unicode="&#xe0de;" d="M512 448l256-192-256-192zM512 832v-384l256 192z" />
<glyph unicode="&#xe0df;" d="M887.68 117.52l-640 704c-5.859 6.281-14.183 10.196-23.422 10.196-17.673 0-32-14.327-32-32 0-8.164 3.058-15.615 8.090-21.268l-0.028 0.032 283.36-311.72-246.88-185.16c-7.807-5.9-12.8-15.167-12.8-25.6 0-17.673 14.327-32 32-32 7.24 0 13.919 2.404 19.28 6.458l-0.080-0.058 204.8 153.6v-320c0-17.673 14.327-32 32-32 7.24 0 13.919 2.404 19.28 6.458l-0.080-0.058 203.32 152.48 105.8-116.4c5.889-6.617 14.429-10.764 23.938-10.764 17.673 0 32 14.327 32 32 0 8.434-3.263 16.106-8.595 21.823l0.017-0.019zM544 128v256l46.92-35.2 100.32-110.36zM480 673.48v158.52c0 17.673 14.327 32 32 32 7.24 0 13.919-2.404 19.28-6.458l-0.080 0.058 256-192c7.807-5.9 12.8-15.167 12.8-25.6s-4.993-19.7-12.72-25.542l-0.080-0.058-134.12-100.6c-5.281-3.996-11.96-6.4-19.2-6.4-17.673 0-32 14.327-32 32 0 10.433 4.993 19.7 12.72 25.542l0.080 0.058 100 75-170.68 128v-94.52c0-17.673-14.327-32-32-32s-32 14.327-32 32v0z" />
<glyph unicode="&#xe0e0;" d="M704 256l-256-192v384zM669.88 665.6l-221.88 166.4v-384l221.88 166.4c7.807 5.9 12.8 15.167 12.8 25.6s-4.993 19.7-12.72 25.542l-0.080 0.058z" />
<glyph unicode="&#xe0e1;" d="M723.2 281.6l-221.88 166.4 93.88 70.4c7.807 5.9 12.8 15.167 12.8 25.6 0 17.673-14.327 32-32 32-7.24 0-13.919-2.404-19.28-6.458l0.080 0.058-76.8-57.6v256l76.8-57.6c5.281-3.996 11.96-6.4 19.2-6.4 17.673 0 32 14.327 32 32 0 10.433-4.993 19.7-12.72 25.542l-0.080 0.058-128 96c-5.281 3.996-11.96 6.4-19.2 6.4-17.673 0-32-14.327-32-32v0-320l-204.8 153.6c-5.281 3.996-11.96 6.4-19.2 6.4-17.673 0-32-14.327-32-32 0-10.433 4.993-19.7 12.72-25.542l0.080-0.058 221.88-166.4-221.88-166.4c-7.807-5.9-12.8-15.167-12.8-25.6 0-17.673 14.327-32 32-32 7.24 0 13.919 2.404 19.28 6.458l-0.080-0.058 204.8 153.6v-320c0-17.673 14.327-32 32-32 7.24 0 13.919 2.404 19.28 6.458l-0.080-0.058 256 192c7.807 5.9 12.8 15.167 12.8 25.6s-4.993 19.7-12.72 25.542l-0.080 0.058zM480 128v256l170.68-128zM950.64 566.64c5.794-5.794 9.378-13.799 9.378-22.64 0-17.683-14.335-32.018-32.018-32.018-8.841 0-16.846 3.584-22.64 9.378l-73.36 73.4-73.36-73.4c-5.794-5.794-13.799-9.378-22.64-9.378-17.683 0-32.018 14.335-32.018 32.018 0 8.841 3.584 16.846 9.378 22.64l73.4 73.36-73.4 73.36c-5.794 5.794-9.378 13.799-9.378 22.64 0 17.683 14.335 32.018 32.018 32.018 8.841 0 16.846-3.584 22.64-9.378v0l73.36-73.4 73.36 73.4c5.794 5.794 13.799 9.378 22.64 9.378 17.683 0 32.018-14.335 32.018-32.018 0-8.841-3.584-16.846-9.378-22.64v0l-73.4-73.36z" />
<glyph unicode="&#xe0e2;" d="M832 832v-640h-544c-53.019 0-96-42.981-96-96v0 640c0 53.019 42.981 96 96 96v0z" />
<glyph unicode="&#xe0e3;" d="M832 864h-544c-70.692 0-128-57.308-128-128v0-672c0-17.673 14.327-32 32-32v0h576c17.673 0 32 14.327 32 32s-14.327 32-32 32v0h-544c0 35.346 28.654 64 64 64v0h544c17.673 0 32 14.327 32 32v0 640c0 17.673-14.327 32-32 32v0zM800 224h-512c-0.052 0-0.113 0-0.174 0-23.507 0-45.526-6.373-64.423-17.485l0.597 0.325v529.16c0 35.346 28.654 64 64 64v0h512z" />
<glyph unicode="&#xe0e4;" d="M832 832v-640h-544c-53.019 0-96-42.981-96-96v0 640c0 53.019 42.981 96 96 96v0h160v-384l128 96 128-96v384z" />
<glyph unicode="&#xe0e5;" d="M832 864h-544c-70.692 0-128-57.308-128-128v0-672c0-17.673 14.327-32 32-32v0h576c17.673 0 32 14.327 32 32s-14.327 32-32 32v0h-544c0 35.346 28.654 64 64 64v0h544c17.673 0 32 14.327 32 32v0 640c0 17.673-14.327 32-32 32v0zM480 800h192v-288l-76.84 57.6c-5.281 3.996-11.96 6.4-19.2 6.4s-13.919-2.404-19.28-6.458l0.080 0.058-76.76-57.6zM800 224h-512c-0.052 0-0.113 0-0.174 0-23.507 0-45.526-6.373-64.423-17.485l0.597 0.325v529.16c0 35.346 28.654 64 64 64v0h128v-352c0-17.673 14.327-32 32-32 7.24 0 13.919 2.404 19.28 6.458l-0.080-0.058 108.8 81.6 108.84-81.6c5.271-3.988 11.934-6.391 19.158-6.4h0.002c5.218 0.008 10.144 1.248 14.506 3.445l-0.186-0.085c10.567 5.373 17.68 16.164 17.68 28.617 0 0.008 0 0.016 0 0.024v-0.001 352h64z" />
<glyph unicode="&#xe0e6;" d="M928 736v-576h-288c-70.692 0-128-57.308-128-128v0c0 70.692-57.308 128-128 128v0h-288v576h288c70.692 0 128-57.308 128-128v0c0 70.692 57.308 128 128 128v0z" />
<glyph unicode="&#xe0e7;" d="M928 768h-288c-52.165 0-98.5-24.964-127.708-63.598l-0.292-0.402c-29.5 39.036-75.835 64-128 64v0h-288c-17.673 0-32-14.327-32-32v0-576c0-17.673 14.327-32 32-32v0h288c53.019 0 96-42.981 96-96v0c0-17.673 14.327-32 32-32s32 14.327 32 32v0c0 53.019 42.981 96 96 96v0h288c17.673 0 32 14.327 32 32v0 576c0 17.673-14.327 32-32 32v0zM384 192h-256v512h256c53.019 0 96-42.981 96-96v0-448c-26.32 19.976-59.629 32-95.747 32-0.089 0-0.178 0-0.267 0h0.014zM896 192h-256c-0.075 0-0.164 0-0.253 0-36.117 0-69.426-12.024-96.142-32.288l0.396 0.288v448c0 53.019 42.981 96 96 96v0h256z" />
<glyph unicode="&#xe0e8;" d="M768 256v-192l-256 160-256-160v192l256 160z" />
<glyph unicode="&#xe0e9;" d="M736 832h-448c-35.346 0-64-28.654-64-64v0-704c0.009-17.666 14.332-31.984 32-31.984 6.285 0 12.147 1.812 17.091 4.942l-0.131-0.078 239.040 149.4 239.080-149.4c4.804-3.037 10.652-4.839 16.92-4.839 17.659 0 31.977 14.304 32 31.957v704.002c0 35.346-28.654 64-64 64v0zM736 768v-454.28l-207.080 129.4c-4.813 3.052-10.675 4.864-16.96 4.864s-12.146-1.812-17.091-4.942l0.131 0.078-207-129.36v454.24zM528.92 251.12c-4.813 3.052-10.675 4.864-16.96 4.864s-12.146-1.812-17.091-4.942l0.131 0.078-207-129.4v116.56l224 140 224-140v-116.56z" />
<glyph unicode="&#xe0ea;" d="M768 768v-704l-256 160-256-160v704c0 17.673 14.327 32 32 32v0h448c17.673 0 32-14.327 32-32v0z" />
<glyph unicode="&#xe0eb;" d="M736 832h-448c-35.346 0-64-28.654-64-64v0-704c0.009-17.666 14.332-31.984 32-31.984 6.285 0 12.147 1.812 17.091 4.942l-0.131-0.078 239.040 149.4 239.080-149.4c4.804-3.037 10.652-4.839 16.92-4.839 17.659 0 31.977 14.304 32 31.957v704.002c0 35.346-28.654 64-64 64v0zM736 121.72l-207.080 129.4c-4.813 3.052-10.675 4.864-16.96 4.864s-12.146-1.812-17.091-4.942l0.131 0.078-207-129.4v646.28h448z" />
<glyph unicode="&#xe0ec;" d="M800 800v-608l-128 91.4v388.6c0 17.673-14.327 32-32 32v0h-288v96c0 17.673 14.327 32 32 32v0h384c17.673 0 32-14.327 32-32v0z" />
<glyph unicode="&#xe0ed;" d="M768 864h-384c-35.346 0-64-28.654-64-64v0-64h-64c-35.346 0-64-28.654-64-64v0-608c0 0 0-0.001 0-0.001 0-17.673 14.327-32 32-32 6.979 0 13.435 2.234 18.695 6.026l-0.095-0.065 205.4 146.72 205.44-146.72c5.156-3.709 11.599-5.932 18.56-5.932 17.663 0 31.984 14.311 32 31.971v157.242l77.4-55.28c5.165-3.727 11.621-5.961 18.6-5.961 17.673 0 32 14.327 32 32 0 0 0 0.001 0 0.001v0 608c0 35.346-28.654 64-64 64v0zM640 126.16l-173.44 124c-5.165 3.727-11.621 5.961-18.6 5.961s-13.435-2.234-18.695-6.026l0.095 0.065-173.36-123.96v545.8h384zM768 254.16l-64 45.84v372c0 35.346-28.654 64-64 64v0h-256v64h384z" />
<glyph unicode="&#xe0ee;" d="M896 486.76v-326.76c0-17.673-14.327-32-32-32v0h-704c-17.673 0-32 14.327-32 32v0 326.76c109.796-64.602 241.867-102.761 382.85-102.761 0.404 0 0.809 0 1.213 0.001h-0.063c0.361-0.001 0.788-0.001 1.215-0.001 140.962 0 273.011 38.159 386.38 104.712l-3.595-1.951z" />
<glyph unicode="&#xe0ef;" d="M416 512c0 17.673 14.327 32 32 32v0h128c17.673 0 32-14.327 32-32s-14.327-32-32-32v0h-128c-17.673 0-32 14.327-32 32v0zM928 672v-512c0-35.346-28.654-64-64-64v0h-704c-35.346 0-64 28.654-64 64v0 512c0 35.346 28.654 64 64 64v0h160v32c0 53.019 42.981 96 96 96v0h192c53.019 0 96-42.981 96-96v0-32h160c35.346 0 64-28.654 64-64v0zM384 736h256v32c0 17.673-14.327 32-32 32v0h-192c-17.673 0-32-14.327-32-32v0zM160 672v-166.48c101.641-56.352 222.88-89.52 351.866-89.52 0.047 0 0.094 0 0.141 0h-0.007c0.040 0 0.086 0 0.132 0 128.992 0 250.233 33.183 355.653 91.479l-3.784-1.919v166.44zM864 160v273.48c-102.749-51.395-223.852-81.48-351.983-81.48-0.006 0-0.012 0-0.018 0h0.001c-0.046 0-0.1 0-0.154 0-128.080 0-249.136 30.070-356.495 83.536l4.649-2.096v-273.44h704z" />
<glyph unicode="&#xe0f2;" d="M640 448c0-70.692-57.308-128-128-128s-128 57.308-128 128c0 70.692 57.308 128 128 128v0c70.692 0 128-57.308 128-128v0z" />
</font>
</defs>
</svg>
